<?xml version="1.0" standalone="no"?>
<!DOCTYPE svg PUBLIC "-//W3C//DTD SVG 1.1//EN" "http://www.w3.org/Graphics/SVG/1.1/DTD/svg11.dtd" >
<svg xmlns="http://www.w3.org/2000/svg">
<metadata>
This is a custom SVG webfont generated by Font Squirrel.
Copyright   : Generated in 2010 by FontLab Studio Copyright info pending
Designer    : Campivisivi
Foundry     : Campivisivi
</metadata>
<defs>
<font id="webfontpjQRfro9" horiz-adv-x="1083" >
<font-face units-per-em="2048" ascent="1536" descent="-512" />
<missing-glyph horiz-adv-x="479" />
<glyph unicode=" "  horiz-adv-x="479" />
<glyph unicode="&#x09;" horiz-adv-x="479" />
<glyph unicode="&#xa0;" horiz-adv-x="479" />
<glyph unicode="!" d="M451 0v270h208v-270h-208zM451 1434h208l-6 -940h-196z" />
<glyph unicode="&#x22;" horiz-adv-x="663" d="M82 1421h186l-6 -471h-178zM403 1421h187l-6 -471h-178z" />
<glyph unicode="#" d="M12 358v164h215v316h-215v163h215v359h172v-359h283v359h172v-359h217v-163h-217v-316h217v-164h-217v-358h-172v358h-283v-358h-172v358h-215zM399 522h283v316h-283v-316z" />
<glyph unicode="$" d="M88 1030q0 190 125 291q121 96 346 96h31l28 213h121l-28 -223l260 -37l-15 -176q-76 10 -270 29l-55 -437q207 -59 287 -135q82 -78 81 -250q0 -213 -120.5 -317t-339.5 -104h-11l-30 -238q-121 6 -121 14l29 232q-154 14 -291 39l20 176q157 -22 295 -31l57 455 q-215 51 -309 139q-90 84 -90 264zM285 1034q0 -94 49 -137q51 -45 178 -80l53 412h-6q-274 0 -274 -195zM553 168q127 2 190 57q61 53 62 170q0 84 -43 127q-41 43 -156 76z" />
<glyph unicode="%" d="M25 1149q0 287 241 287q240 0 240 -287q0 -293 -240 -293q-241 0 -241 293zM174 1149q0 -88 19 -127q18 -41 73 -41q51 0 70 41q20 45 20 127q0 86 -20 127q-18 37 -70 37q-55 0 -73.5 -37t-18.5 -127zM182 78l637 1349l111 -63l-639 -1350zM596 295q0 289 242 289 q240 0 239 -289q0 -293 -239 -293q-242 0 -242 293zM745 295q0 -86 18.5 -127t74.5 -41q53 0 71 39q18 40 19 129q0 90 -18.5 127t-71.5 37q-55 0 -74 -37t-19 -127z" />
<glyph unicode="&#x26;" horiz-adv-x="1431" d="M86 414q0 156 78 256q74 94 227 159q-61 78 -84 140q-20 59 -20 157q0 145 100 234q98 86 275 86q186 0 280 -86q96 -86 96 -248q0 -139 -67 -225q-68 -84 -232 -178l250 -250q37 117 55 262l189 -4q-31 -227 -94 -381l252 -240l-117 -133l-234 217q-106 -119 -209 -166 q-106 -49 -262 -49q-238 0 -360.5 117t-122.5 332zM285 416q0 -129 75 -201q72 -70 215 -70q106 0 176 35t144 121l-383 393q-227 -85 -227 -278zM481 1102q0 -127 90 -223l47 -48q123 61 173 117q51 57 51 146q0 172 -180.5 172t-180.5 -164z" />
<glyph unicode="'" horiz-adv-x="202" d="M0 1419h190l-10 -479h-176z" />
<glyph unicode="(" horiz-adv-x="530" d="M51 616q0 172 51 412q47 223 99 369l49 139h209q-27 -72 -53 -158q-29 -92 -87 -346q-55 -246 -55 -416q0 -341 178 -829l17 -43h-209l-55 139q-31 82 -89 320q-55 231 -55 413z" />
<glyph unicode=")" horiz-adv-x="530" d="M51 -256q51 139 55 152q29 90 87 333q53 227 53 408q0 170 -49 395q-49 221 -99 365l-47 139h209l55 -147q31 -84 88 -332q55 -240 56 -420q0 -181 -49 -406q-47 -211 -101 -356l-49 -131h-209z" />
<glyph unicode="*" d="M240 938l219 162l-213 155l71 99l213 -152l84 250l119 -39l-82 -256h262v-119h-264l82 -254l-117 -34l-84 256l-217 -162z" />
<glyph unicode="+" horiz-adv-x="985" d="M-20 475v176h421v422h181v-422h426v-176h-426v-426h-181v426h-421z" />
<glyph unicode="," horiz-adv-x="346" d="M31 -252l98 492h211l-117 -492h-192z" />
<glyph unicode="-" horiz-adv-x="899" d="M135 481v189h631v-189h-631z" />
<glyph unicode="." horiz-adv-x="505" d="M135 0v270h211v-270h-211z" />
<glyph unicode="/" d="M158 35l575 1425l185 -65l-576 -1426z" />
<glyph unicode="0" d="M37 659q0 387 127 551t377 164q256 0 381 -161.5t125 -553.5q0 -369 -127 -526q-125 -156 -379 -156q-250 0 -377 154q-127 155 -127 528zM250 657q0 -279 69 -387q66 -102 224 -102q156 0 223.5 104.5t67.5 386.5q0 301 -66 412q-68 113 -225.5 113t-225 -113 t-67.5 -414z" />
<glyph unicode="1" d="M109 1063l432 289h186v-1352h-199v1122l-327 -217z" />
<glyph unicode="2" d="M113 0v182l354 363q74 74 151 162q47 53 87 124q41 76 40 148q0 104 -65.5 151.5t-204.5 47.5q-76 0 -151 -9q-49 -6 -136 -20l-51 -10l-14 182q209 53 395 53q219 0 325.5 -90t106.5 -280q0 -144 -61 -252q-55 -98 -217 -263l-293 -299h602v-190h-868z" />
<glyph unicode="3" d="M98 27l23 180q223 -37 403 -37q266 2 267 217q0 203 -252 211h-273v182h273q80 0 149 62q72 61 72 147q0 104 -62 148q-63 45 -190 45q-90 0 -172 -8q-121 -12 -146 -17l-51 -8l-20 176q218 49 399 49q244 0 346 -86q100 -86 101 -272q0 -47 -17 -101q-12 -39 -30 -75 q-12 -25 -52 -58q-35 -31 -45 -34q-4 -4 -43 -31q113 -47 164 -113q53 -70 53 -211q0 -211 -108.5 -313.5t-337.5 -102.5q-209 1 -451 50z" />
<glyph unicode="4" d="M53 233v164l371 955h219l-362 -928h405v424h199v-424h155v-191h-155v-245h-199v245h-633z" />
<glyph unicode="5" d="M90 39l23 180q252 -49 430 -49q119 0 188.5 69.5t69.5 194.5q0 233 -254 234q-63 0 -135 -17q-68 -15 -105 -30l-37 -17l-157 33l43 717h800v-193h-620l-35 -370q147 63 264 63q219 0 330 -98.5t111 -311.5q0 -225 -119 -344q-121 -121 -338 -120q-203 0 -459 59z" />
<glyph unicode="6" d="M61 678q0 369 139.5 532.5t399.5 163.5q164 0 383 -35l-18 -182q-186 27 -365 27q-164 0 -250 -103q-84 -98 -84 -299l47 17q68 20 127 35q80 18 138 18q459 0 458 -424q0 -219 -127 -336q-123 -115 -354 -115q-494 1 -494 701zM264 608q2 -442 291 -442q274 0 274 262 q0 242 -266 242q-143 -7 -299 -62z" />
<glyph unicode="7" d="M109 1161v193h847v-248l-512 -1135l-186 56l494 1087v47h-643z" />
<glyph unicode="8" d="M41 344q0 143 51 215q55 78 162 143q-106 66 -148 132q-43 72 -43 186q0 170 129.5 262t356.5 92q223 0 358 -92t135 -264q0 -121 -45 -189q-43 -63 -155 -127q113 -63 168 -135q53 -68 53 -200q0 -106 -39 -185q-37 -76 -113 -121q-66 -41 -161 -63q-84 -20 -201 -21 q-508 0 -508 367zM256 385q0 -217 293 -217q301 0 301 223q0 86 -51 135q-53 49 -150 80h-205q-188 -59 -188 -221zM276 991q0 -76 41 -127q39 -47 127 -82h205q90 35 133 84q45 51 45 125q0 102 -69.5 147.5t-206.5 45.5q-135 0 -205 -45.5t-70 -147.5z" />
<glyph unicode="9" d="M57 924q0 212 129 331q127 119 349 119q498 0 497 -698q0 -381 -137 -539q-137 -160 -406 -160q-88 0 -172 9q-95 9 -153 18l-58 10l19 179q186 -27 364 -27q335 0 338 399l-51 -14q-63 -20 -131 -33q-86 -16 -137 -16q-451 0 -451 422zM262 924q0 -240 262 -240 q51 0 133 16q96 20 125 29l47 16q-2 199 -75 322q-72 121 -219 121q-127 0 -199 -70q-74 -69 -74 -194z" />
<glyph unicode=":" horiz-adv-x="395" d="M106 0v270h209v-270h-209zM106 637v270h209v-270h-209z" />
<glyph unicode=";" horiz-adv-x="434" d="M35 -240l110 504h211l-141 -504h-180zM131 637v270h209v-270h-209z" />
<glyph unicode="&#x3c;" d="M129 532v201l711 412v-205l-523 -303l523 -318v-204q-77 40 -357 209q-270 163 -354 208z" />
<glyph unicode="=" d="M59 285v178h949v-178h-949zM59 690v178h949v-178h-949z" />
<glyph unicode="&#x3e;" d="M129 115v204l522 318l-522 303v205l711 -412v-201q-63 -35 -353 -208q-266 -162 -358 -209z" />
<glyph unicode="?" horiz-adv-x="788" d="M14 1401q231 57 346 57q225 0 334 -86q106 -86 107 -287q0 -100 -39 -180q-37 -78 -96 -133q-49 -47 -111 -94q-51 -39 -96 -92q-39 -45 -39 -94v-78h-205v84q0 78 39 137q43 66 92 106l111 90q53 45 94 105q39 57 39 127q0 106 -51 149q-55 45 -187 45q-106 0 -313 -45z M213 0v270h209v-270h-209z" />
<glyph unicode="@" horiz-adv-x="2015" d="M98 535q0 950 934 950q459 0 672 -213q215 -215 215 -647v-35q0 -184 -25 -307q-25 -125 -75 -189q-55 -68 -115 -90q-66 -25 -156 -24q-92 0 -153 22q-55 20 -95 82q-201 -102 -342 -102q-80 0 -143 22.5t-115 75.5q-55 59 -82 158q-29 109 -28 258q0 272 90 409 t317 137q82 0 224 -49v31h192v-410q0 -215 12 -307q12 -90 39 -116.5t84 -26.5q59 0 97 26q33 25 55 121q23 100 22 279v37q0 356 -161.5 513.5t-528.5 157.5q-373 0 -555 -184q-182 -186 -182 -579q0 -420 170 -594t567 -174l293 20l8 -186q-193 -20 -301 -21 q-242 0 -403 45q-166 46 -289 154q-125 109 -182 295q-60 191 -60 461zM786 494q0 -186 50 -254q51 -70 137 -70q111 0 264 68q-16 104 -16 303v284q-117 35 -187 35q-147 0 -198 -82q-50 -79 -50 -284z" />
<glyph unicode="A" horiz-adv-x="1236" d="M53 0l365 1421h407l361 -1419h-201l-92 317h-553l-88 -319h-199zM383 510h469l-182 727h-101z" />
<glyph unicode="B" horiz-adv-x="1255" d="M170 0v1421h522q426 0 426 -354q0 -137 -41 -215q-39 -76 -131 -123q106 -41 158 -113q53 -76 53 -217q0 -399 -444 -399h-543zM367 184h338q119 0 184 54q63 51 63 176q0 213 -254 213h-331v-443zM367 807h327q221 0 221 229q0 106 -57 153.5t-174 47.5h-317v-430z" />
<glyph unicode="C" horiz-adv-x="1093" d="M96 709q0 393 113 563q114 172 412 172q66 0 180 -14q96 -12 155 -25l60 -12l-6 -179q-238 35 -365 35q-207 0 -274.5 -118.5t-67.5 -421.5q0 -298 68 -418q68 -119 278 -119q113 0 361 35l6 -180q-233 -49 -395 -50q-160 0 -263 46q-109 47 -161 143q-57 100 -78 225 q-23 132 -23 318z" />
<glyph unicode="D" horiz-adv-x="1302" d="M170 0v1421h492q309 0 428 -172q119 -170 118 -514q0 -174 -24 -299q-25 -127 -82 -229q-57 -104 -168 -156q-109 -51 -272 -51h-492zM367 188h295q106 0 174 41q74 45 106 123q39 90 49 170q12 88 13 213q0 248 -70 373t-272 125h-295v-1045z" />
<glyph unicode="E" horiz-adv-x="1146" d="M170 0v1421h874v-190h-677v-426h555v-187h-555v-428h677v-190h-874z" />
<glyph unicode="F" horiz-adv-x="1120" d="M170 0v1421h874v-190h-677v-504h555v-188h-555v-539h-197z" />
<glyph unicode="G" horiz-adv-x="1234" d="M98 711q0 379 123 557q121 176 428 176q104 0 213 -14q143 -18 189 -29l69 -15l-8 -174q-249 37 -436 37q-217 0 -295 -120.5t-78 -417.5q0 -295 74 -418t293 -123q43 0 67 2q12 0 35 1t33 3t29.5 5t27.5 3q27 4 43 6q10 2 19 3v362h-199v178h395v-706q-293 -49 -465 -50 q-311 0 -434 181t-123 553z" />
<glyph unicode="H" horiz-adv-x="1390" d="M170 0v1421h199v-606h653v606h201v-1421h-201v625h-653v-625h-199z" />
<glyph unicode="I" horiz-adv-x="524" d="M164 0v1421h198v-1421h-198z" />
<glyph unicode="J" horiz-adv-x="632" d="M66 39q123 0 163.5 37t40.5 168v1177h199v-596q0 -139 1 -338.5t1 -259.5q0 -119 -22 -196q-20 -72 -78 -113q-53 -39 -123 -51q-68 -12 -182 -12v184z" />
<glyph unicode="K" horiz-adv-x="1216" d="M170 0v1421h199v-639l217 13l317 626h232l-371 -710l389 -711h-233l-330 602l-221 -12v-590h-199z" />
<glyph unicode="L" horiz-adv-x="1030" d="M170 0v1421h199v-1231h585v-190h-784z" />
<glyph unicode="M" horiz-adv-x="1736" d="M170 0v1421h334l366 -1138l369 1138h330v-1421h-199v1180h-31l-364 -1127h-211l-365 1127h-30v-1180h-199z" />
<glyph unicode="N" horiz-adv-x="1421" d="M170 0v1421h336l508 -1179h41v1179h198v-1421h-327l-516 1180h-41v-1180h-199z" />
<glyph unicode="O" horiz-adv-x="1327" d="M98 702q0 375 125 558q125 184 441 184t442 -184q125 -182 125 -558q0 -381 -123 -553t-444 -172q-315 0 -440.5 174t-125.5 551zM303 702q0 -281 76 -407q76 -125 285 -125q213 0 286.5 123t73.5 409q0 285 -76 416q-78 133 -284.5 133t-284.5 -133q-76 -131 -76 -416z " />
<glyph unicode="P" horiz-adv-x="1228" d="M170 0v1421h516q467 0 467 -469q0 -242 -116.5 -370.5t-350.5 -128.5h-317v-453h-199zM369 643h317q264 0 264 309q0 145 -63 211q-63 68 -201 68h-317v-588z" />
<glyph unicode="Q" horiz-adv-x="1327" d="M98 702q0 375 125 558q125 184 441 184t442 -184q125 -182 125 -558q0 -250 -53 -409q-52 -157 -172 -234l170 -278l-185 -86l-182 297q-72 -14 -145 -15q-315 0 -440.5 174t-125.5 551zM303 702q0 -281 76 -407q76 -125 285 -125q213 0 286.5 123t73.5 409 q0 285 -76 416q-78 133 -284.5 133t-284.5 -133q-76 -131 -76 -416z" />
<glyph unicode="R" horiz-adv-x="1267" d="M170 0v1421h530q238 0 351 -106q115 -109 114 -338q0 -313 -241 -412l250 -565h-220l-227 512h-358v-512h-199zM369 700h333q258 0 259 273q0 260 -261 260h-331v-533z" />
<glyph unicode="S" horiz-adv-x="1087" d="M80 1051q0 199 127 297q125 98 352 98q152 0 422 -47l-16 -180q-295 35 -406 34q-279 0 -278 -198q0 -111 65.5 -154t259.5 -90q225 -57 316 -139q88 -80 88 -262q0 -219 -123 -324q-125 -106 -348 -106q-68 0 -177 12q-150 16 -182 22l-74 13l21 180q272 -35 410 -35 q141 0 208 55q66 53 66 176q0 96 -61 144q-61 45 -232 86q-242 55 -340 141.5t-98 276.5z" />
<glyph unicode="T" horiz-adv-x="997" d="M-12 1231v190h1024v-190h-410v-1231h-201v1231h-413z" />
<glyph unicode="U" horiz-adv-x="1308" d="M147 442v979h199v-979q0 -145 80 -206q78 -59 225 -60q152 0 232 61.5t80 204.5v979h200v-979q0 -246 -129 -352q-131 -109 -383 -108q-250 0 -377 110t-127 350z" />
<glyph unicode="V" horiz-adv-x="1224" d="M53 1421h207l303 -1231h103l301 1231h207l-355 -1421h-409z" />
<glyph unicode="W" horiz-adv-x="1867" d="M66 1421h206l246 -1218h49l256 1210h226l258 -1210h49l241 1218h207l-307 -1421h-330l-233 1124l-225 -1124h-332z" />
<glyph unicode="X" horiz-adv-x="1187" d="M51 0l414 705l-414 716h223l322 -563l319 563h224l-408 -716l408 -705h-224l-319 555l-322 -555h-223z" />
<glyph unicode="Y" horiz-adv-x="1142" d="M33 1421h221l319 -590l316 590h223l-438 -813v-608h-199v608z" />
<glyph unicode="Z" horiz-adv-x="1165" d="M123 0v219l674 973v39h-674v190h921v-221l-673 -973v-37h673v-190h-921z" />
<glyph unicode="[" horiz-adv-x="612" d="M74 1534h461v-188h-263v-1409h263v-189h-459z" />
<glyph unicode="\" horiz-adv-x="1105" d="M121 1378l213 95l635 -1428l-211 -90z" />
<glyph unicode="]" horiz-adv-x="612" d="M74 -63h262v1409h-262v188h461l-3 -1786h-458v189z" />
<glyph unicode="^" d="M74 657l362 695h203l371 -695h-207l-262 502l-262 -502h-205z" />
<glyph unicode="_" horiz-adv-x="1062" d="M55 -10h877v-176h-877v176z" />
<glyph unicode="`" horiz-adv-x="503" d="M-14 1380l63 172l473 -192l-57 -152z" />
<glyph unicode="a" horiz-adv-x="1071" d="M94 299q0 152 80 223q78 68 248 84l287 25v74q0 156 -152 155q-68 0 -166 -6q-100 -6 -164 -12l-63 -6l-8 168q262 41 411 40q169 0 252 -79q84 -80 84 -258v-463q2 -49 27 -70q27 -23 74 -29l-7 -165q-100 0 -159 16q-51 14 -101 57q-176 -76 -356 -76q-137 0 -211 84 q-76 86 -76 238zM291 303q0 -158 125 -158q133 0 293 52v282l-265 -20q-153 -13 -153 -156z" />
<glyph unicode="b" horiz-adv-x="1110" d="M166 2v1456h192v-475q147 61 275 61q209 0 299 -118q88 -115 88 -400q0 -311 -106.5 -430t-387.5 -119q-114 0 -360 25zM358 164q133 -10 168 -10q180 0 237.5 81.5t57.5 290.5q0 186 -49 262q-49 78 -162 78q-53 0 -114 -12q-92 -18 -101 -20l-37 -11v-659z" />
<glyph unicode="c" horiz-adv-x="890" d="M92 526q0 274 101 398q98 121 327 120q53 0 119 -8q111 -14 125 -16l51 -8l-8 -168q-163 18 -240 18q-163 0 -221 -74q-57 -72 -57 -262q0 -215 53 -288q55 -76 227 -76l240 16l6 -168q-195 -33 -299 -33q-240 0 -332 123t-92 426z" />
<glyph unicode="d" horiz-adv-x="1116" d="M92 512q0 276 101 403q101 129 325 129q37 0 92 -6q37 -4 103 -12l47 -6v414h192v-1434h-192v59q-151 -80 -289 -79q-190 0 -284.5 118.5t-94.5 413.5zM289 510q0 -199 53 -274q53 -74 156 -78q123 4 262 59v633q-2 0 -45 6q-53 8 -97 10q-66 4 -88 4q-131 0 -186 -86 t-55 -274z" />
<glyph unicode="e" horiz-adv-x="1036" d="M92 504q0 541 436 540q215 0 319.5 -114.5t104.5 -358.5l-12 -141h-651q0 -141 57 -207q58 -68 191 -67q160 0 376 18l5 -154q-233 -43 -408 -43q-227 4 -322 127q-96 128 -96 400zM287 582h473q0 160 -53.5 225t-178.5 65q-123 0 -180 -67t-61 -223z" />
<glyph unicode="f" horiz-adv-x="688" d="M49 848v174h123v80q0 215 64 297q61 80 221 80l215 -19l-2 -160q-143 4 -170 5q-77 0 -105 -43q-29 -45 -28 -162v-78h280v-174h-280v-848h-195v848h-123z" />
<glyph unicode="g" horiz-adv-x="1071" d="M88 -178q0 80 37 135q35 51 121 119q-63 39 -64 145q0 16 19 60q16 35 37 71l18 31q-156 82 -156 307q0 182 107 268q109 86 293 86q88 0 211 -26l303 6v-160h-166q53 -66 53 -174q0 -199 -96 -274.5t-311 -75.5q-55 0 -95 8q-31 -80 -30 -106q0 -53 37 -70 q35 -14 194 -14q236 0 324 -61.5t88 -241.5q0 -346 -465 -347q-244 0 -352 68q-107 68 -107 246zM281 -160q0 -84 59 -121q58 -37 209 -36q133 0 201 38q66 37 65 123q0 92 -47 117q-47 27 -184 29l-209 10q-49 -39 -74 -76q-20 -33 -20 -84zM295 690q0 -98 45 -141 q49 -45 154 -45q115 0 165 41q49 41 50 145q0 109 -47 150q-45 39 -164 39q-104 0 -153.5 -43.5t-49.5 -145.5z" />
<glyph unicode="h" horiz-adv-x="1150" d="M166 0v1475h192v-494q164 63 295 63q205 0 279 -116q72 -113 72 -393v-535h-193v532q0 184 -37 258t-156 74q-109 0 -260 -47v-817h-192z" />
<glyph unicode="i" horiz-adv-x="503" d="M156 0v1022h194v-1022h-194zM156 1221v215h194v-215h-194z" />
<glyph unicode="j" horiz-adv-x="522" d="M-66 -322q152 86 195 146q45 61 45 188v1010h195v-1012q0 -197 -70 -291q-72 -96 -281 -202zM174 1233v213h195v-213h-195z" />
<glyph unicode="k" horiz-adv-x="1030" d="M166 0v1458h192v-840l140 13l270 391h219l-315 -475l323 -547h-219l-274 442l-144 -12v-430h-192z" />
<glyph unicode="l" horiz-adv-x="512" d="M160 0v1458h194v-1458h-194z" />
<glyph unicode="m" horiz-adv-x="1755" d="M166 0v1022h190v-61q104 57 219 73q44 7 84 7q13 0 25 -1q138 -6 209 -86q233 90 364 90q205 0 279 -112q72 -111 72 -397v-535h-193v465q0 242 -33 319q-34 80 -159 80q-57 0 -117 -14q-61 -14 -100 -31q-35 -14 -39 -18q20 -49 20 -271v-530h-192v526q0 199 -35 267 q-37 72 -158 71q-111 0 -244 -61v-803h-192z" />
<glyph unicode="n" horiz-adv-x="1157" d="M166 0v1022h192v-59q166 82 295 81q207 0 281 -116q72 -113 72 -393v-535h-195v532q0 184 -37 258t-153 74q-113 0 -263 -61v-803h-192z" />
<glyph unicode="o" horiz-adv-x="1079" d="M92 520q0 268 103 395q104 129 348 129q238 0 342 -131q104 -132 104 -393q0 -274 -98 -409q-96 -133 -348 -133.5t-350 131.5q-101 135 -101 411zM289 520q0 -203 51 -284.5t202.5 -81.5t201 86t49.5 280q0 184 -58 266q-59 84 -192 84q-143 0 -198.5 -80t-55.5 -270z " />
<glyph unicode="p" horiz-adv-x="1112" d="M166 -446v1468h192v-61q145 84 281 83q199 0 291 -122.5t92 -399.5q0 -304 -104 -424q-104 -121 -349 -121q-104 0 -211 23v-446h-192zM358 170q158 -16 199 -16q152 0 209 81.5t57 288.5q0 184 -55 264t-162 80q-45 0 -110 -16q-61 -16 -101 -35l-37 -16v-631z" />
<glyph unicode="q" horiz-adv-x="1097" d="M92 496q0 274 106.5 411t360.5 137l375 -22v-1471h-193v474q-88 -47 -221 -48q-227 0 -327.5 131.5t-100.5 387.5zM287 498q0 -172 55 -258t178 -86q111 0 221 53v655q-109 8 -182 8q-152 0 -213 -90q-59 -85 -59 -282z" />
<glyph unicode="r" horiz-adv-x="731" d="M166 0v1022h192v-121q147 109 334 146v-205q-188 -37 -334 -125v-717h-192z" />
<glyph unicode="s" horiz-adv-x="1003" d="M106 735q0 160 107 234q111 76 272 75q55 0 162 -10q102 -10 156 -20l61 -13l-4 -163q-229 33 -362 32q-98 0 -147.5 -30.5t-49.5 -100.5q0 -57 45 -82q53 -29 189 -49q207 -35 284.5 -96t77.5 -209q0 -172 -104 -250q-102 -76 -299 -76q-76 0 -154 11q-37 4 -93.5 13 t-62.5 9l-61 10l8 166q236 -33 346 -32q117 0 172 32q53 31 53 111q0 63 -43 88q-45 27 -182 47q-203 33 -289 94q-82 57 -82 209z" />
<glyph unicode="t" horiz-adv-x="733" d="M47 848v174h137v307h193v-307h301v-174h-301v-447q0 -145 22 -194q23 -47 105 -47l174 10l10 -168q-138 -25 -209 -25q-168 0 -231 80q-63 78 -64 299v492h-137z" />
<glyph unicode="u" horiz-adv-x="1142" d="M150 489v533h194v-530q0 -199 35 -268.5t156 -69.5q49 0 114 16q68 16 101 31l36 14v807h195v-1022h-195v59q-158 -82 -286 -82q-209 0 -281 111q-69 108 -69 401z" />
<glyph unicode="v" horiz-adv-x="985" d="M39 1022h201l221 -860h67l224 860h198l-276 -1022h-361z" />
<glyph unicode="w" horiz-adv-x="1542" d="M45 1022h193l180 -848h39l213 830h204l213 -830h39l181 848h192l-227 -1022h-320l-182 743l-182 -743h-318z" />
<glyph unicode="x" horiz-adv-x="946" d="M43 0l305 510l-305 512h209l221 -371l223 371h207l-305 -512l305 -510h-209l-221 371l-221 -371h-209z" />
<glyph unicode="y" horiz-adv-x="987" d="M39 1022h192l232 -836h61l234 836h192l-401 -1466h-193l121 444h-160z" />
<glyph unicode="z" horiz-adv-x="978" d="M111 0v174l526 676h-526v174h759v-174l-526 -676h526v-174h-759z" />
<glyph unicode="{" horiz-adv-x="647" d="M29 557v164q115 29 157.5 78t42.5 131q0 8 -1 23.5l-3 45t-4 54.5q-6 94 -6 137q0 186 96 270q92 80 314 90l2 -188q-121 -10 -162 -47q-43 -41 -43 -137q0 -35 6 -131q2 -25 4 -54.5l3 -45t1 -23.5q0 -125 -45 -185q-46 -61 -160 -98q111 -35 158 -102q47 -66 47 -189 q0 -4 -8 -119q-6 -86 -6 -120q0 -94 43 -137.5t162 -51.5l-2 -188q-218 9 -314 92q-96 84 -96 264q0 43 6 135l4 52.5l3 42t1 20.5q0 82 -45 133q-42 49 -155 84z" />
<glyph unicode="|" d="M432 -332v1827h199v-1827h-199z" />
<glyph unicode="}" horiz-adv-x="647" d="M29 -78q127 10 164 49q41 45 40 140q0 12 -8 127q-6 86 -6 112q0 125 45 189q47 66 160 102q-114 37 -160 98q-45 59 -45 185q0 31 6 125q8 127 8 129q0 96 -40 137q-37 37 -164 47l2 188q221 -10 313 -90q96 -84 96 -270q0 -10 -8 -137q-6 -94 -6 -123q0 -82 43 -131 t158 -78v-164q-115 -35 -158 -84t-43 -133q0 -23 6 -115q8 -123 8 -135q0 -180 -96 -264q-95 -83 -313 -92z" />
<glyph unicode="~" d="M127 678q6 6 35 31q14 12 84 47q61 31 120.5 30.5t194.5 -49.5t180 -49q78 0 201 92l16 -184l-32 -31q-22 -18 -80 -49q-55 -29 -113 -29q-61 0 -198 50q-138 49 -179 49q-88 0 -211 -92z" />
<glyph unicode="&#xa1;" d="M451 -412l6 940h196l6 -940h-208zM451 752v270h208v-270h-208z" />
<glyph unicode="&#xa2;" horiz-adv-x="892" d="M63 510q0 422 367 444v232h166v-238l188 -20l-6 -170q-178 12 -256 12q-141 0 -203 -57q-57 -55 -57 -203q0 -150 57.5 -203t210.5 -53l250 12l6 -170q-92 -12 -190 -20v-238h-166v232q-190 10 -278.5 110.5t-88.5 329.5z" />
<glyph unicode="&#xa3;" d="M156 0v170h166v528h-136v170h136v131q0 223 86 310q84 84 247 84q96 0 265 -29v-166q-162 20 -261 21q-88 0 -116 -48q-31 -49 -31 -182v-121h338v-170h-338v-528h295l154 33l30 -166l-166 -35z" />
<glyph unicode="&#xa4;" d="M70 176l145 146q-51 88 -51 192t51 195l-145 147l133 133l145 -147q90 53 195 53q102 0 192 -53l148 147l133 -133l-148 -147q53 -90 54 -195q0 -106 -54 -192l148 -146l-133 -133l-148 145q-90 -53 -192 -53q-104 0 -195 53l-145 -145zM340 516q0 -84 59 -143 q57 -57 143.5 -57.5t143.5 57.5q59 59 59 143t-59 143q-57 57 -143 57.5t-144 -57.5q-59 -59 -59 -143z" />
<glyph unicode="&#xa5;" horiz-adv-x="1103" d="M14 1352h222l319 -512l315 512h224l-334 -557h248v-166h-342l-11 -39v-98h353v-166h-353v-326h-198v326h-359v166h359v98l-11 39h-348v166h252z" />
<glyph unicode="&#xa6;" d="M430 -332v807h199v-807h-199zM430 725v811h199v-811h-199z" />
<glyph unicode="&#xa7;" d="M127 494q0 77 43 153q47 82 80 109q-90 68 -90 227q0 342 409 342q133 0 344 -41l-8 -158q-233 29 -323 29q-129 0 -181 -39q-53 -41 -53 -131q0 -80 60 -113q61 -35 229 -67q176 -37 250 -96q72 -59 71 -203q0 -76 -30 -152q-37 -90 -62 -125q76 -63 76 -209 q0 -182 -100 -270q-96 -84 -307 -84q-49 0 -152 10q-92 9 -154 19l-61 10l18 158q233 -29 336 -29q233 0 234 172q0 83 -56 111q-55 27 -237 67q-182 37 -258 101q-78 66 -78 209zM322 526q0 -80 43 -114q41 -31 151 -54q117 -25 201 -57q12 14 31 72q16 49 16 106 q0 78 -45 111q-43 33 -168 57q-151 34 -172 43q-8 -12 -35 -72q-22 -51 -22 -92z" />
<glyph unicode="&#xa8;" horiz-adv-x="503" d="M-37 1268v213h187v-213h-187zM385 1268v213h184v-213h-184z" />
<glyph unicode="&#xa9;" d="M18 887q0 233 149.5 391t375.5 158q229 0 376.5 -160t147.5 -387q0 -230 -147 -387q-147 -158 -379 -158q-219 0 -371 158t-152 385zM123 889q0 -186 119 -311q121 -127 299 -127q182 0 303 127t121 311q0 182 -121 313q-120 129 -301 129q-178 0 -299 -129 q-121 -131 -121 -313zM295 895q0 156 59 233q57 76 193 76q31 0 80 -4q37 -3 55 -6l18 -2l-2 -158q-63 14 -151 15q-98 0 -98 -154q0 -166 98 -166l151 12v-151q-70 -16 -151 -17q-137 0 -194.5 76t-57.5 246z" />
<glyph unicode="&#xaa;" horiz-adv-x="1058" d="M283 954q0 143 153 156l209 14v47q0 63 -24.5 88t-81.5 25l-213 -14l-4 63q152 16 217 17q89 0 129 -43q41 -45 41 -138v-274q12 -41 75 -47l-4 -57q-70 4 -110 45q-127 -45 -244 -45q-63 0 -102 45q-41 46 -41 118zM350 950q0 -94 82 -94q47 0 94 8q59 10 86 19l33 8 v174l-199 -12q-51 -2 -73.5 -29t-22.5 -74z" />
<glyph unicode="&#xab;" horiz-adv-x="1255" d="M184 430v148l412 307v-199l-246 -178l246 -201v-201zM702 430v148l410 307v-199l-244 -178l244 -201v-201z" />
<glyph unicode="&#xac;" d="M115 537v188h854v-506h-189v318h-665z" />
<glyph unicode="&#xad;" horiz-adv-x="899" d="M135 481v189h631v-189h-631z" />
<glyph unicode="&#xae;" d="M-4 888.5q0 239.5 151.5 403.5t395.5 164q246 0 399 -164q156 -166 156 -403.5t-156 -401.5q-157 -166 -399 -165q-244 0 -395.5 163.5t-151.5 403zM98 889q0 -193 129 -330t315.5 -137t315.5 137q131 141 131 330q0 195 -131 332q-129 135 -315.5 135t-315.5 -135 t-129 -332zM305 565v645h230q123 0 186 -47q61 -45 61 -151q0 -74 -22 -123q-22 -46 -74 -74l109 -250h-156l-92 232h-96v-232h-146zM449 909h100q92 0 92 95q0 92 -109 92h-83v-187z" />
<glyph unicode="&#xaf;" horiz-adv-x="503" d="M-47 1290v168h620v-168h-620z" />
<glyph unicode="&#xb0;" d="M205 1155q0 131 82 213t213 82t213 -82t82 -213q0 -133 -80 -213t-215 -80q-133 0 -213 80q-82 82 -82 213zM324 1155q0 -80 49 -129t127 -49q82 0 131 49t49 129t-49 129q-51 51 -131 51q-76 0 -127 -51q-49 -49 -49 -129z" />
<glyph unicode="&#xb1;" d="M66 102v179h966v-179h-966zM66 639v178h389v258h180v-258h397v-178h-397v-254h-180v254h-389z" />
<glyph unicode="&#xb2;" horiz-adv-x="540" d="M41 979v139l170 158q100 88 100 149q0 59 -92 60l-168 -17l-6 150q125 20 221 20q115 0 162 -45q49 -46 49 -147q0 -66 -28 -117q-28 -49 -93 -104l-108 -101h235v-145h-442z" />
<glyph unicode="&#xb3;" horiz-adv-x="540" d="M49 977l8 141q127 -16 201 -16q88 0 88 67.5t-82 67.5h-133v133h131q25 0 47 19q20 18 21 49q0 57 -82 57l-182 -14l-9 137q121 20 213 20q227 0 228 -174q0 -111 -76 -149q49 -16 69.5 -49t20.5 -107q0 -201 -227 -201q-101 1 -236 19z" />
<glyph unicode="&#xb4;" horiz-adv-x="546" d="M31 1362l473 190l67 -180l-479 -172z" />
<glyph unicode="&#xb5;" d="M141 -475v1499h193v-565q4 -182 39 -242q39 -63 153 -63q43 0 113 16q61 14 100 31l39 14v807h195v-1022h-195v59q-158 -82 -286 -82q-104 0 -158 46v-498h-193z" />
<glyph unicode="&#x3bc;" d="M141 -475v1499h193v-565q4 -182 39 -242q39 -63 153 -63q43 0 113 16q61 14 100 31l39 14v807h195v-1022h-195v59q-158 -82 -286 -82q-104 0 -158 46v-498h-193z" />
<glyph unicode="&#xb6;" d="M16 1047q0 172 107 278q109 109 276 109h676v-154h-123v-1280h-170v1280h-200v-1280h-170v664h-15q-168 0 -274.5 106.5t-106.5 276.5z" />
<glyph unicode="&#xb7;" horiz-adv-x="505" d="M135 475v270h211v-270h-211z" />
<glyph unicode="&#xb8;" horiz-adv-x="1703" d="M772 -444l6 118q98 -4 123 -4q86 0 86 70q0 61 -86 61h-74v201h93v-94q129 -4 180 -35q55 -33 55 -133q0 -201 -203 -201q-23 0 -84 4q-8 0 -69 8z" />
<glyph unicode="&#xb9;" horiz-adv-x="540" d="M51 1470l211 148h148v-639h-160v463l-125 -84z" />
<glyph unicode="&#xba;" horiz-adv-x="1075" d="M295 1073q0 276 235 277q121 0 175 -66q57 -70 57 -211q0 -283 -232 -282q-235 -1 -235 282zM365 1073q0 -121 38 -168q39 -49 127 -49t125 49t37 168t-37 164q-37 47 -125 47t-126.5 -47t-38.5 -164z" />
<glyph unicode="&#xbb;" horiz-adv-x="1255" d="M145 106v201l244 201l-244 178v199l410 -307v-148zM662 106v201l245 201l-245 178v199l411 -307v-148z" />
<glyph unicode="&#xbf;" horiz-adv-x="788" d="M14 -63q0 100 39 180q37 78 97 133q49 47 110 94q51 39 96 92q39 45 39 94v78h205v-84q0 -78 -39 -137q-39 -61 -94 -106l-109 -91q-53 -45 -94 -104q-39 -57 -39 -127q0 -109 51.5 -152t186.5 -43q106 0 313 46l25 -189q-231 -57 -346 -57q-225 0 -334 86 q-107 86 -107 287zM393 752v270h209v-270h-209z" />
<glyph unicode="&#xc0;" horiz-adv-x="1234" d="M57 0l365 1421h407l361 -1419h-201l-92 317h-553l-88 -319h-199zM319 1747l66 182l473 -192l-61 -160zM387 510h469l-182 727h-101z" />
<glyph unicode="&#xc1;" horiz-adv-x="1234" d="M57 0l365 1421h407l361 -1419h-201l-92 317h-553l-88 -319h-199zM354 1772l473 190l68 -180l-479 -172zM387 510h469l-182 727h-101z" />
<glyph unicode="&#xc2;" horiz-adv-x="1234" d="M57 0l365 1421h407l361 -1419h-201l-92 317h-553l-88 -319h-199zM281 1614l260 319h155l262 -319h-210l-127 158l-129 -158h-211zM387 510h469l-182 727h-101z" />
<glyph unicode="&#xc3;" horiz-adv-x="1234" d="M57 0l365 1421h409l359 -1419h-199l-94 317h-553l-86 -319h-201zM262 1804q4 6 12.5 12.5t20.5 18.5q33 29 72 53q51 33 94 33q66 0 168 -47q109 -49 133 -49q49 0 151 82l43 -150l-30 -31q-14 -14 -70 -49q-53 -33 -90 -32q-53 0 -163.5 49t-141.5 49q-23 0 -62 -21 q-25 -14 -65 -45l-29 -20zM387 510h471l-184 727h-101z" />
<glyph unicode="&#xc4;" horiz-adv-x="1234" d="M57 0l365 1421h409l359 -1419h-199l-94 317h-553l-86 -319h-201zM356 1677v213h187v-213h-187zM387 510h471l-184 727h-101zM778 1677v213h187v-213h-187z" />
<glyph unicode="&#xc5;" horiz-adv-x="1234" d="M57 0l351 1368q-45 57 -46 139q0 109 74 170.5t189 61.5q117 0 188 -64q76 -66 76 -168q0 -80 -47 -139l348 -1366h-201l-92 317h-553l-88 -319h-199zM387 510h469l-182 727h-101zM516 1507q0 -70 72 -86h76q72 16 71 86q0 43 -30.5 67.5t-79.5 24.5q-52 0 -80 -24 q-29 -25 -29 -68z" />
<glyph unicode="&#xc6;" horiz-adv-x="1837" d="M88 0l432 1421h1231v-190h-678v-412h555v-188h-555v-441h678v-190h-874v319h-488l-98 -319h-203zM440 510h437l2 721h-217z" />
<glyph unicode="&#xc7;" horiz-adv-x="1097" d="M96 709q0 393 113 563q114 172 412 172q66 0 180 -14q96 -12 155 -25l60 -12l-6 -179q-238 35 -365 35q-207 0 -274.5 -118.5t-67.5 -421.5q0 -298 68 -418q68 -119 278 -119q113 0 361 35l6 -180q-201 -43 -377 -50v-69q129 -4 180 -35q55 -33 55 -133q0 -201 -202 -201 q-23 0 -84 4q-12 0 -72 8l-24 5l6 118q98 -4 123 -4q86 0 86 70q0 61 -86 61h-74v181q-260 18 -354 192q-97 177 -97 535z" />
<glyph unicode="&#xc8;" horiz-adv-x="1146" d="M170 0v1421h874v-190h-677v-426h555v-187h-555v-428h677v-190h-874zM332 1747l65 182l473 -192l-61 -160z" />
<glyph unicode="&#xc9;" horiz-adv-x="1169" d="M176 0v1421h875v-190h-678v-426h555v-187h-555v-428h678v-190h-875zM362 1772l474 190l67 -180l-479 -172z" />
<glyph unicode="&#xca;" horiz-adv-x="1169" d="M176 0v1421h875v-190h-678v-426h555v-187h-555v-428h678v-190h-875zM293 1614l260 319h156l262 -319h-211l-127 158l-129 -158h-211z" />
<glyph unicode="&#xcb;" horiz-adv-x="1169" d="M176 0v1421h875v-190h-678v-426h555v-187h-555v-428h678v-190h-875zM326 1677v213h186v-213h-186zM748 1677v213h184v-213h-184z" />
<glyph unicode="&#xcc;" horiz-adv-x="524" d="M-57 1747l65 182l473 -192l-61 -160zM164 0v1421h198v-1421h-198z" />
<glyph unicode="&#xcd;" horiz-adv-x="524" d="M10 1751l473 191l68 -181l-479 -172zM164 0v1421h198v-1421h-198z" />
<glyph unicode="&#xce;" horiz-adv-x="524" d="M-94 1628l270 285h176l271 -285h-222l-135 131l-135 -131h-225zM164 0v1421h198v-1421h-198z" />
<glyph unicode="&#xcf;" horiz-adv-x="524" d="M-43 1663v213h184v-213h-184zM164 0v1421h198v-1421h-198zM389 1663v213h186v-213h-186z" />
<glyph unicode="&#xd0;" horiz-adv-x="1302" d="M41 608v191h129v622h492q309 0 428 -172q119 -170 118 -514q0 -174 -24 -299q-25 -127 -82 -229q-57 -104 -168 -156q-109 -51 -272 -51h-492v608h-129zM367 188h295q106 0 174 41q74 45 106 123q39 90 49 170q12 88 13 213q0 248 -70 373t-272 125h-295v-434h297v-191 h-297v-420z" />
<glyph unicode="&#xd1;" horiz-adv-x="1404" d="M158 0v1421h336l507 -1179h39v1179h201v-1421h-328l-518 1180h-39v-1180h-198zM342 1804q6 6 14.5 12.5t18.5 18.5q27 23 74 53q51 33 92 33q66 0 168 -47q106 -49 133 -49q45 0 151 82l43 -150l-30 -31q-20 -20 -70 -49q-55 -33 -92 -32q-51 0 -162 49t-141 49 q-23 0 -62 -21q-25 -14 -65 -45l-29 -20z" />
<glyph unicode="&#xd2;" horiz-adv-x="1341" d="M106 702q0 375 125 558q125 184 440.5 184t440.5 -184q127 -186 127 -558q0 -379 -125 -552q-123 -172 -442 -173q-315 0 -440.5 174t-125.5 551zM311 702.5q0 -284.5 74 -407.5q76 -125 287 -125q213 0 286.5 123t73.5 409q0 285 -76 416q-78 133 -284.5 133 t-284.5 -133q-76 -131 -76 -415.5zM381 1747l65 182l474 -192l-62 -160z" />
<glyph unicode="&#xd3;" horiz-adv-x="1341" d="M106 702q0 375 125 558q125 184 440.5 184t440.5 -184q127 -186 127 -558q0 -379 -125 -552q-123 -172 -442 -173q-315 0 -440.5 174t-125.5 551zM311 702.5q0 -284.5 74 -407.5q76 -125 287 -125q213 0 286.5 123t73.5 409q0 285 -76 416q-78 133 -284.5 133 t-284.5 -133q-76 -131 -76 -415.5zM383 1772l473 190l68 -180l-480 -172z" />
<glyph unicode="&#xd4;" horiz-adv-x="1341" d="M106 702q0 375 125 558q125 184 440.5 184t440.5 -184q127 -186 127 -558q0 -379 -125 -552q-123 -172 -442 -173q-315 0 -440.5 174t-125.5 551zM311 702.5q0 -284.5 74 -407.5q76 -125 287 -125q213 0 286.5 123t73.5 409q0 285 -76 416q-78 133 -284.5 133 t-284.5 -133q-76 -131 -76 -415.5zM330 1614l260 319h155l263 -319h-211l-127 158l-129 -158h-211z" />
<glyph unicode="&#xd5;" horiz-adv-x="1341" d="M106 702.5q0 374.5 125 557.5q125 184 440.5 184t440.5 -184q125 -182 125 -558q0 -379 -125 -552q-123 -172 -440 -173q-319 0 -443 175q-123 176 -123 550.5zM311 702.5q0 -284.5 74 -407.5q76 -125 287 -125q213 0 286.5 123t73.5 409q0 285 -76 416 q-78 133 -284.5 133t-284.5 -133q-76 -131 -76 -415.5zM313 1804q6 6 14.5 12.5t18.5 18.5q27 23 74 53q51 33 92 33q66 0 168 -47q106 -49 133 -49q45 0 152 82l43 -150q-12 -16 -29 -31q-27 -23 -72 -49q-55 -33 -92 -32q-51 0 -161.5 49t-141.5 49q-23 0 -61 -21 q-25 -14 -66 -45l-29 -20z" />
<glyph unicode="&#xd6;" horiz-adv-x="1341" d="M106 702.5q0 374.5 125 557.5q125 184 440.5 184t440.5 -184q125 -182 125 -558q0 -379 -125 -552q-123 -172 -440 -173q-319 0 -443 175q-123 176 -123 550.5zM311 702.5q0 -284.5 74 -407.5q76 -125 287 -125q213 0 286.5 123t73.5 409q0 285 -76 416 q-78 133 -284.5 133t-284.5 -133q-76 -131 -76 -415.5zM360 1677v213h187v-213h-187zM780 1677v213h187v-213h-187z" />
<glyph unicode="&#xd7;" horiz-adv-x="1331" d="M360 184l377 387l-377 383l129 127l373 -385l375 385l129 -127l-377 -383l379 -387l-129 -125l-377 383l-375 -383z" />
<glyph unicode="&#xd8;" horiz-adv-x="1327" d="M98 702q0 375 125 558q125 184 441 184q129 0 229 -33l113 238l180 -68l-127 -270q172 -166 172 -609q0 -381 -123 -553t-444 -172q-117 0 -215 27l-119 -254l-176 78l125 266q-181 155 -181 608zM303 702q0 -289 72 -403l434 930q-68 23 -145 22q-207 0 -285 -133 q-76 -131 -76 -416zM532 184q51 -14 132 -14q213 0 286.5 123t73.5 409q0 268 -66 396z" />
<glyph unicode="&#xd9;" horiz-adv-x="1308" d="M147 442v979h199v-979q0 -145 80 -206q78 -59 225 -60q152 0 232 61.5t80 204.5v979h200v-979q0 -246 -129 -352q-131 -109 -383 -108q-250 0 -377 110t-127 350zM182 1747l66 182l473 -192l-62 -160z" />
<glyph unicode="&#xda;" horiz-adv-x="1312" d="M154 442v979h198v-979q0 -147 78 -206.5t227 -59.5q152 0 232 61.5t80 204.5v979h200v-979q0 -246 -129 -352q-131 -109 -382.5 -108.5t-376.5 110.5q-127 110 -127 350zM375 1772l473 190l67 -180l-479 -172z" />
<glyph unicode="&#xdb;" horiz-adv-x="1312" d="M154 442v979h198v-979q0 -147 78 -206.5t227 -59.5q152 0 232 61.5t80 204.5v979h200v-979q0 -246 -129 -352q-131 -109 -382.5 -108.5t-376.5 110.5q-127 110 -127 350zM322 1614l260 319h155l262 -319h-211l-126 158l-130 -158h-210z" />
<glyph unicode="&#xdc;" horiz-adv-x="1312" d="M154 442v979h198v-979q0 -147 78 -206.5t227 -59.5q152 0 232 61.5t80 204.5v979h200v-979q0 -246 -129 -352q-131 -109 -382.5 -108.5t-376.5 110.5q-127 110 -127 350zM401 1677v213h187v-213h-187zM823 1677v213h185v-213h-185z" />
<glyph unicode="&#xdd;" horiz-adv-x="1103" d="M14 1421h222l319 -590l315 590h224l-439 -813v-608h-198v608zM246 1772l473 190l67 -180l-479 -172z" />
<glyph unicode="&#xde;" horiz-adv-x="1153" d="M111 0v1421h200v-221h316q471 0 471 -465q0 -242 -119 -373t-352 -131h-316v-231h-200zM311 424h316q266 0 266 311q0 143 -64 209q-65 68 -202 68h-316v-588z" />
<glyph unicode="&#xdf;" horiz-adv-x="1251" d="M166 0v1102q0 205 102 291q100 86 322 86q229 0 325.5 -70t96.5 -231q0 -100 -41 -164q-39 -61 -127 -99q-74 -31 -105 -53q-25 -18 -24 -43q0 -29 33 -55q29 -23 151 -86q162 -86 209 -133q53 -53 53 -146q0 -240 -104 -327q-106 -90 -383 -90q-37 0 -84 8 q-76 14 -88 16l-37 8l8 156q147 -8 201 -8q169 0 227 49q59 49 60 164q0 37 -41 69q-31 25 -170 93q-137 68 -186.5 123t-49.5 141q0 84 39 129q43 49 127 84q82 35 106.5 67.5t24.5 83.5q0 74 -49 104.5t-172 30.5q-119 0 -176 -47q-55 -46 -56 -166v-1087h-192z" />
<glyph unicode="&#xe0;" horiz-adv-x="1081" d="M72 299q0 152 80 223q78 68 247 84l287 25v74q0 156 -151 155q-68 0 -166 -6q-96 -6 -162 -12l-66 -6l-8 168q262 41 412 40q169 0 252 -79q84 -80 84 -258v-463q2 -49 26 -70q27 -23 74 -29l-6 -165q-100 0 -160 16q-51 14 -100 57q-176 -76 -357 -76q-137 0 -211 84 q-75 86 -75 238zM215 1380l64 172l473 -192l-58 -152zM268 303q0 -158 125 -158q133 0 293 52v282l-264 -20q-154 -13 -154 -156z" />
<glyph unicode="&#xe1;" horiz-adv-x="1081" d="M72 299q0 152 80 223q78 68 247 84l287 25v74q0 156 -151 155q-68 0 -166 -6q-96 -6 -162 -12l-66 -6l-8 168q262 41 412 40q169 0 252 -79q84 -80 84 -258v-463q2 -49 26 -70q27 -23 74 -29l-6 -165q-100 0 -160 16q-51 14 -100 57q-176 -76 -357 -76q-137 0 -211 84 q-75 86 -75 238zM221 1362l473 190l68 -180l-479 -172zM268 303q0 -158 125 -158q133 0 293 52v282l-264 -20q-154 -13 -154 -156z" />
<glyph unicode="&#xe2;" horiz-adv-x="1081" d="M72 299q0 152 80 223q78 68 247 84l287 25v74q0 156 -151 155q-68 0 -166 -6q-96 -6 -162 -12l-66 -6l-8 168q262 41 412 40q169 0 252 -79q84 -80 84 -258v-463q2 -49 26 -70q27 -23 74 -29l-6 -165q-100 0 -160 16q-51 14 -100 57q-176 -76 -357 -76q-137 0 -211 84 q-75 86 -75 238zM160 1204l260 320h155l263 -320h-211l-127 158l-129 -158h-211zM268 303q0 -158 125 -158q133 0 293 52v282l-264 -20q-154 -13 -154 -156z" />
<glyph unicode="&#xe3;" horiz-adv-x="1081" d="M72 299q0 154 78 223q78 68 247 84l289 25v74q0 156 -151 155q-68 0 -166 -6q-96 -6 -162 -12l-66 -6l-8 168q262 41 410 40q170 0 254 -79q82 -80 82 -258v-463q2 -49 26 -70q27 -23 76 -29l-8 -165q-98 0 -158 16q-51 14 -100 57q-178 -76 -357 -76q-139 0 -213 84 q-73 82 -73 238zM143 1395l33 32q16 14 74 52q51 33 92 32q59 0 168 -49q102 -47 133 -47q45 0 152 82l43 -149q-12 -16 -29 -31q-33 -29 -72 -51q-52 -31 -92 -31q-51 0 -161.5 49t-141.5 49q-20 0 -61 -22q-49 -27 -68 -41l-27 -23zM266 303q0 -158 125 -158q135 0 295 52 v282l-264 -20q-156 -13 -156 -156z" />
<glyph unicode="&#xe4;" horiz-adv-x="1081" d="M72 299q0 154 78 223q78 68 247 84l289 25v74q0 156 -151 155q-68 0 -166 -6q-96 -6 -162 -12l-66 -6l-8 168q262 41 410 40q170 0 254 -79q82 -80 82 -258v-463q2 -49 26 -70q27 -23 76 -29l-8 -165q-98 0 -158 16q-51 14 -100 57q-178 -76 -357 -76q-139 0 -213 84 q-73 82 -73 238zM209 1268v213h186v-213h-186zM266 303q0 -158 125 -158q135 0 295 52v282l-264 -20q-156 -13 -156 -156zM631 1268v213h184v-213h-184z" />
<glyph unicode="&#xe5;" horiz-adv-x="1081" d="M72 299q0 152 80 223q78 68 247 84l287 25v74q0 156 -151 155q-68 0 -166 -6q-96 -6 -162 -12l-66 -6l-8 168q262 41 412 40q169 0 252 -79q84 -80 84 -258v-463q2 -49 26 -70q27 -23 74 -29l-6 -165q-100 0 -160 16q-51 14 -100 57q-176 -76 -357 -76q-137 0 -211 84 q-75 86 -75 238zM268 303q0 -158 125 -158q133 0 293 52v282l-264 -20q-154 -13 -154 -156zM303 1317q0 92 64 156q66 66 159 65q90 0 156 -65.5t66 -155.5q0 -92 -66 -158q-63 -63 -156 -63q-96 0 -159.5 63.5t-63.5 157.5zM438 1317q0 -39 25 -64q27 -27 65 -26 q33 0 59.5 26.5t26.5 63.5t-26 63q-25 25 -60 25q-41 0 -65.5 -24.5t-24.5 -63.5z" />
<glyph unicode="&#xe6;" horiz-adv-x="1693" d="M109 299q0 164 86 229q88 68 280 82l250 21v74q0 76 -41 116q-39 39 -113 39q-68 0 -165 -6q-29 -2 -83.5 -4t-76.5 -4l-66 -6l-8 170q262 35 410 34q201 0 272 -122q100 123 305 122q213 0 317.5 -114.5t104.5 -358.5l-12 -141h-651q2 -137 59 -207q55 -68 188 -67 q158 0 377 18l4 -154q-233 -43 -407 -43q-205 0 -305 107l-60 -27q-178 -80 -379 -80q-139 0 -213 84q-73 82 -73 238zM305 303q0 -158 125 -158q119 0 318 60q-27 98 -27 274l-260 -20q-82 -6 -119 -43t-37 -113zM918 582h471q0 160 -53.5 225t-176.5 65t-182 -69t-59 -221 z" />
<glyph unicode="&#xe7;" horiz-adv-x="890" d="M92 526q0 274 101 398q98 121 327 120q53 0 119 -8q111 -14 125 -16l51 -8l-8 -168q-163 18 -240 18q-163 0 -221 -74q-57 -72 -57 -262q0 -215 53 -288q55 -76 227 -76l240 16l6 -168q-184 -31 -274 -33v-69q129 -4 180 -35q55 -33 55 -133q0 -201 -203 -201 q-23 0 -84 4q-8 0 -69 8l-27 5l6 118q98 -4 123 -4q86 0 86 70q0 61 -86 61h-73v181q-201 16 -279 138.5t-78 405.5z" />
<glyph unicode="&#xe8;" horiz-adv-x="1024" d="M90 504q0 541 436 540q215 0 319.5 -114.5t104.5 -358.5l-12 -141h-651q0 -141 57 -207q58 -68 191 -67q158 0 376 18l4 -154q-233 -43 -407 -43q-227 4 -322 127q-96 128 -96 400zM205 1356l63 172l473 -193l-57 -151zM285 582h473q0 160 -53.5 225t-178.5 65 q-121 0 -180 -67q-57 -67 -61 -223z" />
<glyph unicode="&#xe9;" horiz-adv-x="1024" d="M90 504q0 541 436 540q215 0 319.5 -114.5t104.5 -358.5l-12 -141h-651q0 -141 57 -207q58 -68 191 -67q158 0 376 18l4 -154q-233 -43 -407 -43q-227 4 -322 127q-96 128 -96 400zM279 1362l473 190l67 -180l-479 -172zM285 582h473q0 160 -53.5 225t-178.5 65 q-121 0 -180 -67q-57 -67 -61 -223z" />
<glyph unicode="&#xea;" horiz-adv-x="1024" d="M90 504q0 541 436 540q215 0 319.5 -114.5t104.5 -358.5l-12 -141h-651q0 -141 57 -207q58 -68 191 -67q158 0 376 18l4 -154q-233 -43 -407 -43q-227 4 -322 127q-96 128 -96 400zM201 1204l260 320h155l263 -320h-211l-127 158l-129 -158h-211zM285 582h473 q0 160 -53.5 225t-178.5 65q-121 0 -180 -67q-57 -67 -61 -223z" />
<glyph unicode="&#xeb;" horiz-adv-x="1024" d="M90 504q0 541 436 540q215 0 319.5 -114.5t104.5 -358.5l-12 -141h-651q0 -137 57 -207q55 -68 191 -67q158 0 376 18l4 -154q-233 -43 -407 -43q-227 4 -322 127q-96 128 -96 400zM221 1268v213h185v-213h-185zM285 582h473q0 160 -53.5 225t-178.5 65q-121 0 -180 -67 q-57 -67 -61 -223zM641 1268v213h186v-213h-186z" />
<glyph unicode="&#xec;" horiz-adv-x="532" d="M-12 1380l63 172l473 -192l-57 -152zM174 0v1022h195v-1022h-195z" />
<glyph unicode="&#xed;" horiz-adv-x="532" d="M45 1362l473 190l68 -180l-480 -172zM174 0v1022h195v-1022h-195z" />
<glyph unicode="&#xee;" horiz-adv-x="540" d="M-76 1204l260 320h156l262 -320h-211l-127 158l-129 -158h-211zM174 0v1022h195v-1022h-195z" />
<glyph unicode="&#xef;" horiz-adv-x="532" d="M-41 1268v213h186v-213h-186zM174 0v1022h195v-1022h-195zM381 1268v213h186v-213h-186z" />
<glyph unicode="&#xf0;" d="M70 463q0 193 118 309q117 115 316 115q59 0 145 -17q57 -10 123 -32l45 -17q-8 123 -73.5 213t-208.5 158l-218 -162l-84 115l144 104q-106 31 -205 51l33 166q197 -31 346 -86l201 148l82 -115l-136 -100q326 -184 326 -596q0 -387 -114.5 -561t-374.5 -174 q-223 0 -344 125t-121 356zM276 463q0 -139 66 -221q63 -80 193 -80q143 0 213 112q66 109 69 375q-156 66 -301 66q-111 0 -176 -72q-64 -69 -64 -180z" />
<glyph unicode="&#xf1;" horiz-adv-x="1173" d="M178 0v1022h193v-59q166 82 295 81q207 0 280 -116q72 -113 72 -393v-535h-195v532q0 184 -36.5 258t-153.5 74q-115 0 -262 -61v-803h-193zM252 1395l33 32q16 14 73 52q51 33 93 32q61 0 167 -49q102 -47 134 -47q45 0 151 82l43 -149q-6 -8 -28.5 -31t-71.5 -51 q-52 -31 -92 -31q-51 0 -162 49t-141 49q-20 0 -61.5 -22.5t-65.5 -40.5l-29 -23z" />
<glyph unicode="&#xf2;" horiz-adv-x="1079" d="M92 520q0 268 103 395q104 129 348 129q238 0 342 -131q104 -132 104 -393q0 -274 -98 -409q-96 -133 -348 -133.5t-350 131.5q-101 135 -101 411zM272 1380l64 172l473 -192l-57 -152zM289 520q0 -203 51 -284.5t202.5 -81.5t201 86t49.5 280q0 184 -58 266 q-59 84 -192 84q-143 0 -198.5 -80t-55.5 -270z" />
<glyph unicode="&#xf3;" horiz-adv-x="1079" d="M92 520q0 268 103 395q104 129 348 129q238 0 342 -131q104 -132 104 -393q0 -274 -98 -409q-96 -133 -348 -133.5t-350 131.5q-101 135 -101 411zM262 1362l473 190l68 -180l-479 -172zM289 520q0 -203 51 -284.5t202.5 -81.5t201 86t49.5 280q0 184 -58 266 q-59 84 -192 84q-143 0 -198.5 -80t-55.5 -270z" />
<glyph unicode="&#xf4;" horiz-adv-x="1079" d="M92 520q0 268 103 395q104 129 348 129q238 0 342 -131q104 -132 104 -393q0 -274 -98 -409q-96 -133 -348 -133.5t-350 131.5q-101 135 -101 411zM195 1204l260 320h155l262 -320h-210l-127 158l-129 -158h-211zM289 520q0 -203 51 -284.5t202.5 -81.5t201 86t49.5 280 q0 184 -58 266q-59 84 -192 84q-143 0 -198.5 -80t-55.5 -270z" />
<glyph unicode="&#xf5;" horiz-adv-x="1079" d="M92 520q0 268 103 395q104 129 348 129q238 0 342 -131q104 -132 104 -393q0 -274 -98 -409q-96 -133 -348 -133.5t-350 131.5q-101 135 -101 411zM188 1395l33 32q16 14 74 52q51 33 92 32q59 0 168 -49q102 -47 133 -47q49 0 152 82l43 -149q-6 -8 -29 -31t-72 -51 q-52 -31 -92 -31q-51 0 -161.5 49t-141.5 49q-20 0 -61 -22q-49 -27 -68 -41l-27 -23zM289 520q0 -203 51 -284.5t202.5 -81.5t201 86t49.5 280q0 184 -58 266q-59 84 -192 84q-143 0 -198.5 -80t-55.5 -270z" />
<glyph unicode="&#xf6;" horiz-adv-x="1079" d="M92 520q0 268 103 395q104 129 348 129q238 0 342 -131q104 -132 104 -393q0 -274 -98 -409q-96 -133 -348 -133.5t-350 131.5q-101 135 -101 411zM233 1268v213h185v-213h-185zM289 520q0 -203 51 -284.5t202.5 -81.5t201 86t49.5 280q0 184 -58 266q-59 84 -192 84 q-143 0 -198.5 -80t-55.5 -270zM653 1268v213h187v-213h-187z" />
<glyph unicode="&#xf7;" d="M160 678v215h114v65h437v-65h104v-215h-655zM395 170v227h195v-227h-195z" />
<glyph unicode="&#xf8;" horiz-adv-x="1079" d="M92 520q0 268 103 395q104 129 348 129q82 0 137 -14l86 211l123 -45l-86 -213q186 -113 186 -463q0 -274 -98 -409q-96 -133 -348 -134q-76 0 -148 15l-88 -217l-123 45l90 217q-182 108 -182 483zM289 520q0 -229 67 -305l258 647q-23 8 -71 8q-143 0 -198.5 -80 t-55.5 -270zM461 160q37 -6 82 -6q152 0 201 86t49 280q0 201 -70 283z" />
<glyph unicode="&#xf9;" horiz-adv-x="1142" d="M150 489v533h194v-530q0 -199 35 -268.5t156 -69.5q49 0 114 16q68 16 101 31l36 14v807h195v-1022h-195v59q-158 -82 -286 -82q-209 0 -281 111q-69 108 -69 401zM227 1370l72 180l471 -190l-70 -172z" />
<glyph unicode="&#xfa;" horiz-adv-x="1142" d="M150 489v533h194v-530q0 -199 35 -268.5t156 -69.5q49 0 114 16q68 16 101 31l36 14v807h195v-1022h-195v59q-158 -82 -286 -82q-209 0 -281 111q-69 108 -69 401zM291 1362l473 190l67 -180l-479 -172z" />
<glyph unicode="&#xfb;" horiz-adv-x="1142" d="M150 489v533h194v-530q0 -199 35 -268.5t156 -69.5q49 0 114 16q68 16 101 31l36 14v807h195v-1022h-195v59q-158 -82 -286 -82q-209 0 -281 111q-69 108 -69 401zM197 1204l260 320h155l262 -320h-210l-127 158l-129 -158h-211z" />
<glyph unicode="&#xfc;" horiz-adv-x="1142" d="M150 489v533h194v-530q0 -199 35 -268.5t156 -69.5q49 0 114 16q68 16 101 31l36 14v807h195v-1022h-195v59q-158 -82 -286 -82q-209 0 -281 111q-69 108 -69 401zM274 1268v213h187v-213h-187zM696 1268v213h185v-213h-185z" />
<glyph unicode="&#xfd;" horiz-adv-x="980" d="M25 1022h192l232 -836h61l233 836h193l-401 -1466h-193l121 444h-160zM256 1362l473 190l68 -180l-480 -172z" />
<glyph unicode="&#xfe;" horiz-adv-x="1099" d="M205 -446v1904h194v-475q147 61 273 61q209 0 299 -118q88 -115 88 -400q0 -311 -106.5 -430t-385.5 -119q-8 0 -90 5q-16 0 -34.5 1t-27.5 2t-16 1v-432h-194zM399 164q133 -10 166 -10q180 0 238 82q59 84 59 290q0 186 -49 262q-49 78 -164 78q-51 0 -112 -12 q-92 -18 -101 -20l-37 -11v-659z" />
<glyph unicode="&#xff;" horiz-adv-x="987" d="M39 1022h192l232 -836h61l234 836h192l-401 -1466h-193l121 444h-160zM195 1268v213h186v-213h-186zM616 1268v213h185v-213h-185z" />
<glyph unicode="&#x100;" horiz-adv-x="1236" d="M53 0l365 1421h407l361 -1419h-201l-92 317h-553l-88 -319h-199zM276 1655v168h662v-168h-662zM383 510h469l-182 727h-101z" />
<glyph unicode="&#x101;" horiz-adv-x="1071" d="M94 299q0 152 80 223q78 68 248 84l287 25v74q0 156 -152 155q-68 0 -166 -6q-100 -6 -164 -12l-63 -6l-8 168q262 41 411 40q169 0 252 -79q84 -80 84 -258v-463q2 -49 27 -70q27 -23 74 -29l-7 -165q-100 0 -159 16q-51 14 -101 57q-176 -76 -356 -76q-137 0 -211 84 q-76 86 -76 238zM221 1290v168h621v-168h-621zM291 303q0 -158 125 -158q133 0 293 52v282l-265 -20q-153 -13 -153 -156z" />
<glyph unicode="&#x102;" horiz-adv-x="1236" d="M53 0l365 1421h407l361 -1419h-201l-92 317h-553l-88 -319h-199zM276 1898h201q3 -55 43 -86q43 -33 98 -32q57 0 101 32q40 31 43 86h199q-10 -129 -99 -204q-90 -78 -243.5 -78t-243.5 78q-89 75 -99 204zM383 510h469l-182 727h-101z" />
<glyph unicode="&#x103;" horiz-adv-x="1071" d="M94 299q0 152 80 223q78 68 248 84l287 25v74q0 156 -152 155q-68 0 -166 -6q-100 -6 -164 -12l-63 -6l-8 168q262 41 411 40q169 0 252 -79q84 -80 84 -258v-463q2 -49 27 -70q27 -23 74 -29l-7 -165q-100 0 -159 16q-51 14 -101 57q-176 -76 -356 -76q-137 0 -211 84 q-76 86 -76 238zM184 1511h201q3 -61 43 -98q37 -35 108.5 -35t108.5 35q40 37 43 98h201q-10 -139 -101 -221q-94 -84 -251.5 -84t-251.5 84q-91 82 -101 221zM291 303q0 -158 125 -158q133 0 293 52v282l-265 -20q-153 -13 -153 -156z" />
<glyph unicode="&#x104;" horiz-adv-x="1236" d="M53 0l365 1421h407l361 -1419h-10q-131 -119 -132 -190q0 -33 17 -52q18 -20 47 -20l92 10l21 -160q-96 -20 -179 -20q-88 0 -143 49t-55 137q0 119 145 246h-4l-92 317h-553l-88 -319h-199zM383 510h469l-182 727h-101z" />
<glyph unicode="&#x105;" horiz-adv-x="1071" d="M94 299q0 152 80 223q78 68 248 84l287 25v74q0 156 -152 155q-68 0 -166 -6q-100 -6 -164 -12l-63 -6l-8 168q262 41 411 40q169 0 252 -79q84 -80 84 -258v-463q2 -49 27 -70q27 -23 74 -29l-7 -165q-47 0 -59 2q-109 -109 -109 -170q0 -33 17 -52q18 -20 47 -20l92 10 l21 -160q-96 -20 -179 -20q-88 0 -143 49t-55 137q0 49 39 117q35 61 67 94q23 23 56 47q-33 18 -54 39q-176 -76 -356 -76q-137 0 -211 84q-76 86 -76 238zM291 303q0 -158 125 -158q133 0 293 52v282l-265 -20q-153 -13 -153 -156z" />
<glyph unicode="&#x106;" horiz-adv-x="1087" d="M96 709q0 393 113 563q114 172 412 172q66 0 180 -14q96 -12 155 -25l60 -12l-6 -179q-238 35 -365 35q-207 0 -274.5 -118.5t-67.5 -421.5q0 -298 68 -418q68 -119 278 -119q113 0 361 35l6 -180q-233 -49 -395 -50q-160 0 -263 46q-109 47 -161 143q-57 100 -78 225 q-23 132 -23 318zM328 1751l473 191l67 -181l-479 -172z" />
<glyph unicode="&#x107;" horiz-adv-x="890" d="M92 526q0 274 101 398q98 121 327 120q53 0 119 -8q111 -14 125 -16l51 -8l-8 -168q-163 18 -240 18q-163 0 -221 -74q-57 -72 -57 -262q0 -215 53 -288q55 -76 227 -76l240 16l6 -168q-195 -33 -299 -33q-240 0 -332 123t-92 426zM219 1362l473 190l68 -180l-479 -172z " />
<glyph unicode="&#x108;" horiz-adv-x="1087" d="M96 709q0 393 113 563q114 172 412 172q66 0 180 -14q96 -12 155 -25l60 -12l-6 -179q-238 35 -365 35q-207 0 -274.5 -118.5t-67.5 -421.5q0 -298 68 -418q68 -119 278 -119q113 0 361 35l6 -180q-233 -49 -395 -50q-160 0 -263 46q-109 47 -161 143q-57 100 -78 225 q-23 132 -23 318zM256 1624l270 285h176l271 -285h-221l-136 131l-135 -131h-225z" />
<glyph unicode="&#x109;" horiz-adv-x="890" d="M92 526q0 274 101 398q98 121 327 120q53 0 119 -8q111 -14 125 -16l51 -8l-8 -168q-163 18 -240 18q-163 0 -221 -74q-57 -72 -57 -262q0 -215 53 -288q55 -76 227 -76l240 16l6 -168q-195 -33 -299 -33q-240 0 -332 123t-92 426zM125 1204l260 320h156l262 -320h-211 l-127 158l-129 -158h-211z" />
<glyph unicode="&#x10a;" horiz-adv-x="1087" d="M96 709q0 393 113 563q114 172 412 172q66 0 180 -14q96 -12 155 -25l60 -12l-6 -179q-238 35 -365 35q-207 0 -274.5 -118.5t-67.5 -421.5q0 -298 68 -418q68 -119 278 -119q113 0 361 35l6 -180q-233 -49 -395 -50q-160 0 -263 46q-109 47 -161 143q-57 100 -78 225 q-23 132 -23 318zM502 1647v211h192v-211h-192z" />
<glyph unicode="&#x10b;" horiz-adv-x="890" d="M92 526q0 274 101 398q98 121 327 120q53 0 119 -8q111 -14 125 -16l51 -8l-8 -168q-163 18 -240 18q-163 0 -221 -74q-57 -72 -57 -262q0 -215 53 -288q55 -76 227 -76l240 16l6 -168q-195 -33 -299 -33q-240 0 -332 123t-92 426zM391 1212v211h193v-211h-193z" />
<glyph unicode="&#x10c;" horiz-adv-x="1087" d="M96 709q0 393 113 563q114 172 412 172q66 0 180 -14q96 -12 155 -25l60 -12l-6 -179q-238 35 -365 35q-207 0 -274.5 -118.5t-67.5 -421.5q0 -298 68 -418q68 -119 278 -119q113 0 361 35l6 -180q-233 -49 -395 -50q-160 0 -263 46q-109 47 -161 143q-57 100 -78 225 q-23 132 -23 318zM254 1909h223l137 -135l134 135h223l-271 -285h-174z" />
<glyph unicode="&#x10d;" horiz-adv-x="890" d="M92 526q0 274 101 398q98 121 327 120q53 0 119 -8q111 -14 125 -16l51 -8l-8 -168q-163 18 -240 18q-163 0 -221 -74q-57 -72 -57 -262q0 -215 53 -288q55 -76 227 -76l240 16l6 -168q-195 -33 -299 -33q-240 0 -332 123t-92 426zM152 1524h210l130 -156l126 156h211 l-260 -320h-159z" />
<glyph unicode="&#x10e;" horiz-adv-x="1302" d="M170 0v1421h492q309 0 428 -172q119 -170 118 -514q0 -174 -24 -299q-25 -127 -82 -229q-57 -104 -168 -156q-109 -51 -272 -51h-492zM258 1909h223l137 -135l134 135h223l-270 -285h-175zM367 188h295q106 0 174 41q74 45 106 123q39 90 49 170q12 88 13 213 q0 248 -70 373t-272 125h-295v-1045z" />
<glyph unicode="&#x10f;" horiz-adv-x="1523" d="M92 512q0 276 101 403q101 129 325 129q37 0 92 -6q37 -4 103 -12l47 -6v414h192v-1434h-192v59q-151 -80 -289 -79q-190 0 -284.5 118.5t-94.5 413.5zM289 510q0 -199 53 -274q53 -74 156 -78q123 4 262 59v633q-2 0 -45 6q-53 8 -97 10q-66 4 -88 4q-131 0 -186 -86 t-55 -274zM1174 926v497h188v-497h-188z" />
<glyph unicode="&#x110;" horiz-adv-x="1302" d="M41 614v191h129v616h492q309 0 428 -172q119 -170 118 -514q0 -174 -24 -299q-25 -127 -82 -229q-57 -104 -168 -156q-109 -51 -272 -51h-492v614h-129zM367 188h295q106 0 174 41q74 45 106 123q39 90 49 170q12 88 13 213q0 248 -70 373t-272 125h-295v-428h305v-191 h-305v-426z" />
<glyph unicode="&#x111;" horiz-adv-x="1110" d="M92 512q0 276 101 403q101 129 325 129q37 0 92 -6q37 -4 103 -12l47 -6v254h-418v168h621v-168h-11v-1274h-192v59q-151 -80 -289 -79q-190 0 -284.5 118.5t-94.5 413.5zM289 510q0 -199 53 -274q53 -74 156 -78q123 4 262 59v633q-2 0 -45 6q-53 8 -97 10q-66 4 -88 4 q-131 0 -186 -86t-55 -274z" />
<glyph unicode="&#x112;" horiz-adv-x="1146" d="M170 0v1421h874v-190h-677v-426h555v-187h-555v-428h677v-190h-874zM272 1667v168h662v-168h-662z" />
<glyph unicode="&#x113;" horiz-adv-x="1036" d="M92 504q0 541 436 540q215 0 319.5 -114.5t104.5 -358.5l-12 -141h-651q0 -141 57 -207q58 -68 191 -67q160 0 376 18l5 -154q-233 -43 -408 -43q-227 4 -322 127q-96 128 -96 400zM217 1290v168h621v-168h-621zM287 582h473q0 160 -53.5 225t-178.5 65q-123 0 -180 -67 t-61 -223z" />
<glyph unicode="&#x114;" horiz-adv-x="1146" d="M170 0v1421h874v-190h-677v-426h555v-187h-555v-428h677v-190h-874zM281 1901h200q2 -53 43 -89q39 -33 99 -32q63 0 102 32q37 33 41 89h199q-10 -131 -99 -207q-90 -78 -243 -78q-152 0 -242 78q-92 78 -100 207z" />
<glyph unicode="&#x115;" horiz-adv-x="1036" d="M92 504q0 541 436 540q215 0 319.5 -114.5t104.5 -358.5l-12 -141h-651q0 -141 57 -207q58 -68 191 -67q160 0 376 18l5 -154q-233 -43 -408 -43q-227 4 -322 127q-96 128 -96 400zM174 1511h199q2 -59 45 -98q37 -35 108 -35q139 0 152 133h199q-10 -139 -101 -223 q-88 -82 -250 -82q-164 0 -252 82q-90 84 -100 223zM287 582h473q0 160 -53.5 225t-178.5 65q-123 0 -180 -67t-61 -223z" />
<glyph unicode="&#x116;" horiz-adv-x="1146" d="M170 0v1421h874v-190h-677v-426h555v-187h-555v-428h677v-190h-874zM518 1647v211h193v-211h-193z" />
<glyph unicode="&#x117;" horiz-adv-x="1036" d="M92 504q0 541 436 540q215 0 319.5 -114.5t104.5 -358.5l-12 -141h-651q0 -141 57 -207q58 -68 191 -67q160 0 376 18l5 -154q-233 -43 -408 -43q-227 4 -322 127q-96 128 -96 400zM287 582h473q0 160 -53.5 225t-178.5 65q-123 0 -180 -67t-61 -223zM422 1212v211h192 v-211h-192z" />
<glyph unicode="&#x118;" horiz-adv-x="1146" d="M170 0v1421h874v-190h-677v-426h555v-187h-555v-428h677v-190h-49q-127 -127 -127 -188q0 -33 17 -52q18 -20 47 -20l92 10l20 -160q-96 -20 -178 -20q-88 0 -143 49t-55 137q0 121 143 244h-641z" />
<glyph unicode="&#x119;" horiz-adv-x="1036" d="M92 504q0 541 436 540q215 0 319.5 -114.5t104.5 -358.5l-12 -141h-651q0 -141 57 -207q59 -68 191 -67q160 0 376 18l5 -154l-70 -12h6q-131 -119 -131 -190q0 -31 18.5 -51.5t44.5 -20.5l93 10l20 -159q-96 -20 -178 -21q-88 0 -143.5 49t-55.5 137q0 104 119 222 q-68 -6 -131 -7q-227 4 -322 127q-96 128 -96 400zM287 582h473q0 160 -53.5 225t-178.5 65q-123 0 -180 -67t-61 -223z" />
<glyph unicode="&#x11a;" horiz-adv-x="1146" d="M170 0v1421h874v-190h-677v-426h555v-187h-555v-428h677v-190h-874zM291 1931h223l137 -135l133 135h224l-271 -284h-174z" />
<glyph unicode="&#x11b;" horiz-adv-x="1036" d="M92 504q0 541 436 540q215 0 319.5 -114.5t104.5 -358.5l-12 -141h-651q0 -141 57 -207q58 -68 191 -67q160 0 376 18l5 -154q-233 -43 -408 -43q-227 4 -322 127q-96 128 -96 400zM180 1524h211l129 -156l127 156h211l-260 -320h-160zM287 582h473q0 160 -53.5 225 t-178.5 65q-123 0 -180 -67t-61 -223z" />
<glyph unicode="&#x11c;" horiz-adv-x="1234" d="M98 711q0 379 123 557q121 176 428 176q104 0 213 -14q143 -18 189 -29l69 -15l-8 -174q-249 37 -436 37q-217 0 -295 -120.5t-78 -417.5q0 -295 74 -418t293 -123q43 0 67 2q12 0 35 1t33 3t29.5 5t27.5 3q27 4 43 6q10 2 19 3v362h-199v178h395v-706q-293 -49 -465 -50 q-311 0 -434 181t-123 553zM291 1624l270 285h176l271 -285h-222l-135 131l-135 -131h-225z" />
<glyph unicode="&#x11d;" horiz-adv-x="1071" d="M88 -178q0 80 37 135q35 51 121 119q-63 39 -64 145q0 16 19 60q16 35 37 71l18 31q-156 82 -156 307q0 182 107 268q109 86 293 86q88 0 211 -26l303 6v-160h-166q53 -66 53 -174q0 -199 -96 -274.5t-311 -75.5q-55 0 -95 8q-31 -80 -30 -106q0 -53 37 -70 q35 -14 194 -14q236 0 324 -61.5t88 -241.5q0 -346 -465 -347q-244 0 -352 68q-107 68 -107 246zM199 1204l260 320h155l263 -320h-211l-127 158l-129 -158h-211zM281 -160q0 -84 59 -121q58 -37 209 -36q133 0 201 38q66 37 65 123q0 92 -47 117q-47 27 -184 29l-209 10 q-49 -39 -74 -76q-20 -33 -20 -84zM295 690q0 -98 45 -141q49 -45 154 -45q115 0 165 41q49 41 50 145q0 109 -47 150q-45 39 -164 39q-104 0 -153.5 -43.5t-49.5 -145.5z" />
<glyph unicode="&#x11e;" horiz-adv-x="1234" d="M98 711q0 379 123 557q121 176 428 176q104 0 213 -14q143 -18 189 -29l69 -15l-8 -174q-249 37 -436 37q-217 0 -295 -120.5t-78 -417.5q0 -295 74 -418t293 -123q43 0 67 2q12 0 35 1t33 3t29.5 5t27.5 3q27 4 43 6q10 2 19 3v362h-199v178h395v-706q-293 -49 -465 -50 q-311 0 -434 181t-123 553zM317 1898h199q3 -55 43 -86q43 -33 98 -32q57 0 101 32q40 31 43 86h200q-10 -127 -100 -204.5t-244 -77.5q-152 0 -241 78q-89 75 -99 204z" />
<glyph unicode="&#x11f;" horiz-adv-x="1071" d="M88 -178q0 80 37 135q35 51 121 119q-63 39 -64 145q0 16 19 60q16 35 37 71l18 31q-156 82 -156 307q0 182 107 268q109 86 293 86q88 0 211 -26l303 6v-160h-166q53 -66 53 -174q0 -199 -96 -274.5t-311 -75.5q-55 0 -95 8q-31 -80 -30 -106q0 -53 37 -70 q35 -14 194 -14q236 0 324 -61.5t88 -241.5q0 -346 -465 -347q-244 0 -352 68q-107 68 -107 246zM186 1511h199q3 -61 43 -98q37 -35 108.5 -35t110.5 35t41 98h201q-10 -139 -101 -223q-88 -82 -251 -82q-162 0 -250 82q-91 84 -101 223zM281 -160q0 -84 59 -121 q58 -37 209 -36q133 0 201 38q66 37 65 123q0 92 -47 117q-47 27 -184 29l-209 10q-49 -39 -74 -76q-20 -33 -20 -84zM295 690q0 -98 45 -141q49 -45 154 -45q115 0 165 41q49 41 50 145q0 109 -47 150q-45 39 -164 39q-104 0 -153.5 -43.5t-49.5 -145.5z" />
<glyph unicode="&#x120;" horiz-adv-x="1234" d="M98 711q0 379 123 557q121 176 428 176q104 0 213 -14q143 -18 189 -29l69 -15l-8 -174q-249 37 -436 37q-217 0 -295 -120.5t-78 -417.5q0 -295 74 -418t293 -123q43 0 67 2q12 0 35 1t33 3t29.5 5t27.5 3q27 4 43 6q10 2 19 3v362h-199v178h395v-706q-293 -49 -465 -50 q-311 0 -434 181t-123 553zM532 1659v211h195v-211h-195z" />
<glyph unicode="&#x121;" horiz-adv-x="1071" d="M88 -178q0 80 37 135q35 51 121 119q-63 39 -64 145q0 16 19 60q16 35 37 71l18 31q-156 82 -156 307q0 182 107 268q109 86 293 86q88 0 211 -26l303 6v-160h-166q53 -66 53 -174q0 -199 -96 -274.5t-311 -75.5q-55 0 -95 8q-31 -80 -30 -106q0 -53 37 -70 q35 -14 194 -14q236 0 324 -61.5t88 -241.5q0 -346 -465 -347q-244 0 -352 68q-107 68 -107 246zM281 -160q0 -84 59 -121q58 -37 209 -36q133 0 201 38q66 37 65 123q0 92 -47 117q-47 27 -184 29l-209 10q-49 -39 -74 -76q-20 -33 -20 -84zM295 690q0 -98 45 -141 q49 -45 154 -45q115 0 165 41q49 41 50 145q0 109 -47 150q-45 39 -164 39q-104 0 -153.5 -43.5t-49.5 -145.5zM440 1212v211h193v-211h-193z" />
<glyph unicode="&#x122;" horiz-adv-x="1234" d="M98 711q0 379 123 557q121 176 428 176q104 0 213 -14q143 -18 189 -29l69 -15l-8 -174q-249 37 -436 37q-217 0 -295 -120.5t-78 -417.5q0 -295 74 -418t293 -123q43 0 67 2q12 0 35 1t33 3t29.5 5t27.5 3q27 4 43 6q10 2 19 3v362h-199v178h395v-706q-293 -49 -465 -50 q-311 0 -434 181t-123 553zM479 -600l88 442h189l-105 -442h-172z" />
<glyph unicode="&#x123;" horiz-adv-x="1071" d="M88 -178q0 80 37 135q35 51 121 119q-63 39 -64 145q0 16 19 60q16 35 37 71l18 31q-156 82 -156 307q0 182 107 268q109 86 293 86q88 0 211 -26l303 6v-160h-166q53 -66 53 -174q0 -199 -96 -274.5t-311 -75.5q-55 0 -95 8q-31 -80 -30 -106q0 -53 37 -70 q35 -14 194 -14q236 0 324 -61.5t88 -241.5q0 -346 -465 -347q-244 0 -352 68q-107 68 -107 246zM281 -160q0 -84 59 -121q58 -37 209 -36q133 0 201 38q66 37 65 123q0 92 -47 117q-47 27 -184 29l-209 10q-49 -39 -74 -76q-20 -33 -20 -84zM295 690q0 -98 45 -141 q49 -45 154 -45q115 0 165 41q49 41 50 145q0 109 -47 150q-45 39 -164 39q-104 0 -153.5 -43.5t-49.5 -145.5zM375 1202l104 443h172l-88 -443h-188z" />
<glyph unicode="&#x124;" horiz-adv-x="1382" d="M170 0v1421h199v-606h653v606h201v-1421h-201v625h-653v-625h-199zM338 1616l270 285h176l271 -285h-221l-136 131l-135 -131h-225z" />
<glyph unicode="&#x125;" horiz-adv-x="1150" d="M166 0v1475h192v-494q164 63 295 63q205 0 279 -116q72 -113 72 -393v-535h-193v532q0 184 -37 258t-156 74q-109 0 -260 -47v-817h-192zM238 1569l260 319h155l262 -319h-210l-127 157l-129 -157h-211z" />
<glyph unicode="&#x126;" horiz-adv-x="1382" d="M29 1024v170h141v227h199v-227h653v227h201v-227h155v-170h-155v-1024h-201v625h-653v-625h-199v1024h-141zM369 815h653v209h-653v-209z" />
<glyph unicode="&#x127;" horiz-adv-x="1150" d="M45 1155v168h121v152h192v-152h308v-168h-308v-174q164 63 295 63q205 0 279 -116q72 -113 72 -393v-535h-193v532q0 184 -37 258t-156 74q-109 0 -260 -47v-817h-192v1155h-121z" />
<glyph unicode="&#x128;" horiz-adv-x="524" d="M-102 1772l34 34q27 27 74 56q57 35 96 34q57 0 187 -53q123 -51 149 -51q45 0 160 90l45 -147q-8 -10 -33 -35q-22 -22 -73 -55t-95 -33q-51 0 -180 53t-158 53q-55 0 -163 -94zM164 0v1421h198v-1421h-198z" />
<glyph unicode="&#x129;" horiz-adv-x="540" d="M-84 1395l33 32q23 20 71 52q51 33 95 32q61 0 168 -49q102 -47 133 -47q49 0 151 82l43 -149l-30 -31q-25 -25 -70 -51q-52 -31 -92 -31q-51 0 -162 49t-141 49q-20 0 -61.5 -22.5t-65.5 -40.5l-29 -23zM174 0v1022h195v-1022h-195z" />
<glyph unicode="&#x12a;" horiz-adv-x="524" d="M-66 1690v168h662v-168h-662zM164 0v1421h198v-1421h-198z" />
<glyph unicode="&#x12b;" horiz-adv-x="540" d="M-39 1290v168h621v-168h-621zM174 0v1022h195v-1022h-195z" />
<glyph unicode="&#x12c;" horiz-adv-x="524" d="M-78 1898h199q3 -55 43 -86q43 -33 100.5 -32.5t100.5 32.5q37 29 43 86h198q-10 -129 -98 -204q-90 -78 -243.5 -78t-244.5 78q-88 75 -98 204zM164 0v1421h198v-1421h-198z" />
<glyph unicode="&#x12d;" horiz-adv-x="540" d="M-80 1511h201q2 -59 45 -98q37 -35 106 -35q72 0 109 35q40 37 43 98h199q-10 -139 -101 -223q-88 -82 -250 -82q-164 0 -252 82q-90 84 -100 223zM174 0v1022h195v-1022h-195z" />
<glyph unicode="&#x12e;" horiz-adv-x="524" d="M31 -244q0 121 143 244h-10v1421h198v-1421h-4q-127 -127 -127 -188q0 -33 17 -52q18 -20 47 -20l92 10l21 -160q-96 -20 -179 -20q-88 0 -143 49t-55 137z" />
<glyph unicode="&#x12f;" horiz-adv-x="503" d="M-702 0v1022h194v-1022h-194zM-702 1221v215h194v-215h-194zM18 -244q0 121 152 250l14 12l166 -16q-131 -119 -131 -190q0 -33 17 -52q18 -20 47 -20l92 10l20 -160q-96 -20 -178 -20q-88 0 -143.5 49t-55.5 137z" />
<glyph unicode="&#x130;" horiz-adv-x="524" d="M164 0v1421h198v-1421h-198zM166 1647v211h194v-211h-194z" />
<glyph unicode="&#x131;" horiz-adv-x="532" d="M174 0v1022h195v-1022h-195z" />
<glyph unicode="&#x134;" horiz-adv-x="632" d="M-20 1616l270 285h176l270 -285h-221l-135 131l-135 -131h-225zM66 39q123 0 163.5 37t40.5 168v1177h199v-596q0 -139 1 -338.5t1 -259.5q0 -119 -22 -196q-20 -72 -78 -113q-53 -39 -123 -51q-68 -12 -182 -12v184z" />
<glyph unicode="&#x135;" horiz-adv-x="522" d="M-66 -322q152 86 195 146q45 61 45 188v1010h195v-1012q0 -197 -70 -291q-72 -96 -281 -202zM-63 1204l260 320h155l262 -320h-211l-127 158l-129 -158h-210z" />
<glyph unicode="&#x136;" horiz-adv-x="1216" d="M170 0v1421h199v-639l217 13l317 626h232l-371 -710l389 -711h-233l-330 602l-221 -12v-590h-199zM455 -600l88 442h188l-104 -442h-172z" />
<glyph unicode="&#x137;" horiz-adv-x="1030" d="M166 0v1458h192v-840l140 13l270 391h219l-315 -475l323 -547h-219l-274 442l-144 -12v-430h-192zM371 -600l88 442h188l-104 -442h-172z" />
<glyph unicode="&#x139;" horiz-adv-x="1028" d="M170 0v1421h199v-1231h585v-190h-784zM250 1751l473 191l68 -181l-480 -172z" />
<glyph unicode="&#x13a;" horiz-adv-x="512" d="M-12 1784l473 190l67 -180l-479 -172zM160 0v1458h194v-1458h-194z" />
<glyph unicode="&#x13b;" horiz-adv-x="1030" d="M170 0v1421h199v-1231h585v-190h-784zM377 -600l88 442h188l-104 -442h-172z" />
<glyph unicode="&#x13c;" horiz-adv-x="512" d="M72 -600l88 442h188l-104 -442h-172zM160 0v1458h194v-1458h-194z" />
<glyph unicode="&#x13d;" horiz-adv-x="1030" d="M170 0v1421h199v-1231h585v-190h-784zM729 924v497h189v-497h-189z" />
<glyph unicode="&#x13e;" horiz-adv-x="919" d="M160 0v1458h194v-1458h-194zM575 924v497h189v-497h-189z" />
<glyph unicode="&#x141;" horiz-adv-x="1030" d="M-43 578l213 149v694h199v-555l293 205l96 -133l-389 -272v-476h585v-190h-784v526l-117 -82z" />
<glyph unicode="&#x142;" horiz-adv-x="653" d="M10 575l221 154v729h195v-592l143 101l95 -133l-238 -166v-668h-195v530l-127 -88z" />
<glyph unicode="&#x143;" horiz-adv-x="1421" d="M170 0v1421h336l508 -1179h41v1179h198v-1421h-327l-516 1180h-41v-1180h-199zM442 1751l473 191l68 -181l-479 -172z" />
<glyph unicode="&#x144;" horiz-adv-x="1157" d="M166 0v1022h192v-59q166 82 295 81q207 0 281 -116q72 -113 72 -393v-535h-195v532q0 184 -37 258t-153 74q-113 0 -263 -61v-803h-192zM307 1362l473 190l68 -180l-479 -172z" />
<glyph unicode="&#x145;" horiz-adv-x="1421" d="M170 0v1421h336l508 -1179h41v1179h198v-1421h-327l-516 1180h-41v-1180h-199zM573 -600l89 442h188l-105 -442h-172z" />
<glyph unicode="&#x146;" horiz-adv-x="1157" d="M166 0v1022h192v-59q166 82 295 81q207 0 281 -116q72 -113 72 -393v-535h-195v532q0 184 -37 258t-153 74q-113 0 -263 -61v-803h-192zM430 -600l88 442h189l-105 -442h-172z" />
<glyph unicode="&#x147;" horiz-adv-x="1421" d="M170 0v1421h336l508 -1179h41v1179h198v-1421h-327l-516 1180h-41v-1180h-199zM354 1903h224l137 -136l133 136h223l-270 -285h-174z" />
<glyph unicode="&#x148;" horiz-adv-x="1157" d="M166 0v1022h192v-59q166 82 295 81q207 0 281 -116q72 -113 72 -393v-535h-195v532q0 184 -37 258t-153 74q-113 0 -263 -61v-803h-192zM240 1524h211l129 -156l127 156h211l-261 -320h-159z" />
<glyph unicode="&#x14a;" horiz-adv-x="1421" d="M170 0v1421h336l508 -1179h41v1179h198v-256v-596q0 -139 1 -338.5t1 -259.5q0 -119 -22 -196q-20 -72 -78 -113q-53 -39 -120.5 -51t-184.5 -12v184q125 0 164 37q41 37 41 168v12h-129l-516 1180h-41v-1180h-199z" />
<glyph unicode="&#x14b;" horiz-adv-x="1157" d="M164 0v1022h192v-59q172 82 303 81q199 0 273 -122.5t74 -386.5v-535q0 -203 -64 -293q-66 -94 -276 -201l-86 162q150 86 192 144q41 55 41 184v536q0 170 -39 254q-37 82 -149 82q-45 0 -117 -16q-51 -12 -111 -33l-41 -14v-805h-192z" />
<glyph unicode="&#x14c;" horiz-adv-x="1327" d="M98 702q0 375 125 558q125 184 441 184t442 -184q125 -182 125 -558q0 -381 -123 -553t-444 -172q-315 0 -440.5 174t-125.5 551zM303 702q0 -281 76 -407q76 -125 285 -125q213 0 286.5 123t73.5 409q0 285 -76 416q-78 133 -284.5 133t-284.5 -133q-76 -131 -76 -416z M330 1675v168h661v-168h-661z" />
<glyph unicode="&#x14d;" horiz-adv-x="1079" d="M92 520q0 268 103 395q104 129 348 129q238 0 342 -131q104 -132 104 -393q0 -274 -98 -409q-96 -133 -348 -133.5t-350 131.5q-101 135 -101 411zM229 1290v168h621v-168h-621zM289 520q0 -203 51 -284.5t202.5 -81.5t201 86t49.5 280q0 184 -58 266q-59 84 -192 84 q-143 0 -198.5 -80t-55.5 -270z" />
<glyph unicode="&#x14e;" horiz-adv-x="1327" d="M98 702q0 375 125 558q125 184 441 184t442 -184q125 -182 125 -558q0 -381 -123 -553t-444 -172q-315 0 -440.5 174t-125.5 551zM303 702q0 -281 76 -407q76 -125 285 -125q213 0 286.5 123t73.5 409q0 285 -76 416q-78 133 -284.5 133t-284.5 -133q-76 -131 -76 -416z M324 1898h198q3 -55 43 -86q43 -33 99 -32q59 0 102 32q37 29 41 86h201q-10 -127 -100.5 -204.5t-243.5 -77.5q-150 0 -240 77.5t-100 204.5z" />
<glyph unicode="&#x14f;" horiz-adv-x="1079" d="M92 520q0 268 103 395q104 129 348 129q238 0 342 -131q104 -132 104 -393q0 -274 -98 -409q-96 -133 -348 -133.5t-350 131.5q-101 135 -101 411zM190 1511h199q3 -61 43 -98q37 -35 108.5 -35t110.5 35t41 98h201q-10 -139 -100 -223q-88 -82 -252 -82q-162 0 -250 82 q-91 84 -101 223zM289 520q0 -203 51 -284.5t202.5 -81.5t201 86t49.5 280q0 184 -58 266q-59 84 -192 84q-143 0 -198.5 -80t-55.5 -270z" />
<glyph unicode="&#x150;" horiz-adv-x="1327" d="M98 702q0 375 125 558q125 184 441 184t442 -184q125 -182 125 -558q0 -381 -123 -553t-444 -172q-315 0 -440.5 174t-125.5 551zM285 1636l239 314l168 -80l-254 -305zM303 702q0 -281 76 -407q76 -125 285 -125q213 0 286.5 123t73.5 409q0 285 -76 416 q-78 133 -284.5 133t-284.5 -133q-76 -131 -76 -416zM711 1634l237 314l168 -78l-254 -307z" />
<glyph unicode="&#x151;" horiz-adv-x="1079" d="M92 520q0 268 103 395q104 129 348 129q238 0 342 -131q104 -132 104 -393q0 -274 -98 -409q-96 -133 -348 -133.5t-350 131.5q-101 135 -101 411zM160 1282l276 317l150 -104l-287 -315zM289 520q0 -203 51 -284.5t202.5 -81.5t201 86t49.5 280q0 184 -58 266 q-59 84 -192 84q-143 0 -198.5 -80t-55.5 -270zM561 1282l279 317l147 -104l-287 -315z" />
<glyph unicode="&#x152;" horiz-adv-x="1931" d="M123 707q0 395 119 565q119 172 420 172q127 0 272 -23h866v-192h-670v-410h547v-190h-547v-436h670v-193h-862q-158 -23 -276 -23q-310 0 -424 173q-115 174 -115 557zM328 709q0 -301 73 -418q76 -119 291 -119q41 0 242 16v1043q-215 18 -248 18q-209 0 -283 -119 q-75 -122 -75 -421z" />
<glyph unicode="&#x153;" horiz-adv-x="1792" d="M121 520q0 266 104.5 395t345.5 129q248 0 351 -163q102 164 335 163q215 0 319.5 -114.5t104.5 -358.5l-12 -141h-651q0 -137 57 -207q55 -68 191 -67q160 0 376 18l5 -154q-233 -43 -408 -43q-227 0 -326 148q-98 -147 -342 -148q-254 0 -352 132t-98 411zM317 520 q0 -203 51.5 -284.5t202.5 -81.5q150 0 199 86q51 90 51 280q0 184 -57 266q-59 84 -193 84q-145 0 -200 -79q-54 -78 -54 -271zM1016 582h473q0 160 -53.5 225t-178.5 65q-119 0 -182 -69q-59 -65 -59 -221z" />
<glyph unicode="&#x154;" horiz-adv-x="1265" d="M170 0v1421h530q238 0 351 -106q115 -109 114 -338q0 -313 -241 -412l250 -565h-220l-227 512h-358v-512h-199zM362 1751l474 191l67 -181l-479 -172zM369 700h333q258 0 259 273q0 260 -261 260h-331v-533z" />
<glyph unicode="&#x155;" horiz-adv-x="731" d="M113 1362l473 190l67 -180l-479 -172zM166 0v1022h192v-121q147 109 334 146v-205q-188 -37 -334 -125v-717h-192z" />
<glyph unicode="&#x156;" horiz-adv-x="1267" d="M170 0v1421h530q238 0 351 -106q115 -109 114 -338q0 -313 -241 -412l250 -565h-220l-227 512h-358v-512h-199zM369 700h333q258 0 259 273q0 260 -261 260h-331v-533zM492 -600l88 442h188l-104 -442h-172z" />
<glyph unicode="&#x157;" horiz-adv-x="731" d="M74 -600l88 442h188l-104 -442h-172zM166 0v1022h192v-121q147 109 334 146v-205q-188 -37 -334 -125v-717h-192z" />
<glyph unicode="&#x158;" horiz-adv-x="1265" d="M170 0v1421h530q238 0 351 -106q115 -109 114 -338q0 -313 -241 -412l250 -565h-220l-227 512h-358v-512h-199zM276 1905h224l137 -136l133 136h223l-270 -285h-174zM369 700h333q258 0 259 273q0 260 -261 260h-331v-533z" />
<glyph unicode="&#x159;" horiz-adv-x="731" d="M45 1524h211l129 -156l127 156h211l-260 -320h-160zM166 0v1022h192v-121q147 109 334 146v-205q-188 -37 -334 -125v-717h-192z" />
<glyph unicode="&#x15a;" horiz-adv-x="1087" d="M80 1051q0 199 127 297q125 98 352 98q152 0 422 -47l-16 -180q-295 35 -406 34q-279 0 -278 -198q0 -111 65.5 -154t259.5 -90q225 -57 316 -139q88 -80 88 -262q0 -219 -123 -324q-125 -106 -348 -106q-68 0 -177 12q-150 16 -182 22l-74 13l21 180q272 -35 410 -35 q141 0 208 55q66 53 66 176q0 96 -61 144q-61 45 -232 86q-242 55 -340 141.5t-98 276.5zM287 1751l473 191l67 -181l-479 -172z" />
<glyph unicode="&#x15b;" horiz-adv-x="1003" d="M106 735q0 160 107 234q111 76 272 75q55 0 162 -10q102 -10 156 -20l61 -13l-4 -163q-229 33 -362 32q-98 0 -147.5 -30.5t-49.5 -100.5q0 -57 45 -82q53 -29 189 -49q207 -35 284.5 -96t77.5 -209q0 -172 -104 -250q-102 -76 -299 -76q-76 0 -154 11q-37 4 -93.5 13 t-62.5 9l-61 10l8 166q236 -33 346 -32q117 0 172 32q53 31 53 111q0 63 -43 88q-45 27 -182 47q-203 33 -289 94q-82 57 -82 209zM233 1362l474 190l67 -180l-479 -172z" />
<glyph unicode="&#x15c;" horiz-adv-x="1087" d="M80 1051q0 199 127 297q125 98 352 98q152 0 422 -47l-16 -180q-295 35 -406 34q-279 0 -278 -198q0 -111 65.5 -154t259.5 -90q225 -57 316 -139q88 -80 88 -262q0 -219 -123 -324q-125 -106 -348 -106q-68 0 -177 12q-150 16 -182 22l-74 13l21 180q272 -35 410 -35 q141 0 208 55q66 53 66 176q0 96 -61 144q-61 45 -232 86q-242 55 -340 141.5t-98 276.5zM199 1624l270 285h176l270 -285h-221l-135 131l-135 -131h-225z" />
<glyph unicode="&#x15d;" horiz-adv-x="1003" d="M106 735q0 160 107 234q111 76 272 75q55 0 162 -10q102 -10 156 -20l61 -13l-4 -163q-229 33 -362 32q-98 0 -147.5 -30.5t-49.5 -100.5q0 -57 45 -82q53 -29 189 -49q207 -35 284.5 -96t77.5 -209q0 -172 -104 -250q-102 -76 -299 -76q-76 0 -154 11q-37 4 -93.5 13 t-62.5 9l-61 10l8 166q236 -33 346 -32q117 0 172 32q53 31 53 111q0 63 -43 88q-45 27 -182 47q-203 33 -289 94q-82 57 -82 209zM164 1204l260 320h156l262 -320h-211l-127 158l-129 -158h-211z" />
<glyph unicode="&#x15e;" horiz-adv-x="1087" d="M80 1051q0 199 127 297q125 98 352 98q152 0 422 -47l-16 -180q-295 35 -406 34q-279 0 -278 -198q0 -111 65.5 -154t259.5 -90q225 -57 316 -139q88 -80 88 -262q0 -395 -402 -426v-76q129 -4 180 -35q55 -33 56 -133q0 -201 -203 -201q-23 0 -84 4q-12 0 -72 8l-24 5 l6 118q98 -4 123 -4q86 0 86 70q0 61 -86 61h-74v179q-152 2 -410 47l21 180q272 -35 410 -35q141 0 208 55q66 53 66 176q0 96 -61 144q-61 45 -232 86q-242 55 -340 141.5t-98 276.5z" />
<glyph unicode="&#x15f;" horiz-adv-x="1003" d="M106 735q0 160 107 234q111 76 272 75q55 0 162 -10q102 -10 156 -20l61 -13l-4 -163q-229 33 -362 32q-98 0 -147.5 -30.5t-49.5 -100.5q0 -57 45 -82q53 -29 189 -49q207 -35 284.5 -96t77.5 -209q0 -311 -365 -323v-72q129 -4 181 -35q55 -33 55 -133 q0 -201 -203 -201q-23 0 -84 4q-8 0 -69 8l-27 5l6 118q98 -4 123 -4q86 0 86 70q0 61 -86 61h-74v179q-31 2 -141 14q-74 8 -127 18l-49 8l8 166q236 -33 346 -32q117 0 172 32q53 31 53 111q0 63 -43 88q-45 27 -182 47q-203 33 -289 94q-82 57 -82 209z" />
<glyph unicode="&#x160;" horiz-adv-x="1087" d="M80 1051q0 199 127 297q125 98 352 98q152 0 422 -47l-16 -180q-295 35 -406 34q-279 0 -278 -198q0 -111 65.5 -154t259.5 -90q225 -57 316 -139q88 -80 88 -262q0 -219 -123 -324q-125 -106 -348 -106q-68 0 -177 12q-150 16 -182 22l-74 13l21 180q272 -35 410 -35 q141 0 208 55q66 53 66 176q0 96 -61 144q-61 45 -232 86q-242 55 -340 141.5t-98 276.5zM205 1909h223l137 -135l133 135h224l-271 -285h-174z" />
<glyph unicode="&#x161;" horiz-adv-x="1003" d="M106 735q0 160 107 234q111 76 272 75q55 0 162 -10q102 -10 156 -20l61 -13l-4 -163q-229 33 -362 32q-98 0 -147.5 -30.5t-49.5 -100.5q0 -57 45 -82q53 -29 189 -49q207 -35 284.5 -96t77.5 -209q0 -172 -104 -250q-102 -76 -299 -76q-76 0 -154 11q-37 4 -93.5 13 t-62.5 9l-61 10l8 166q236 -33 346 -32q117 0 172 32q53 31 53 111q0 63 -43 88q-45 27 -182 47q-203 33 -289 94q-82 57 -82 209zM184 1524h211l129 -156l127 156h211l-260 -320h-160z" />
<glyph unicode="&#x162;" horiz-adv-x="997" d="M-12 1231v190h1024v-190h-410v-1231h-201v1231h-413zM360 -600l89 442h188l-105 -442h-172z" />
<glyph unicode="&#x163;" horiz-adv-x="741" d="M47 848v174h137v307h193v-307h301v-174h-301v-447q0 -145 22 -194q23 -47 105 -47l174 10l10 -168q-138 -25 -209 -25q-168 0 -231 80q-63 78 -64 299v492h-137zM227 -600l88 442h189l-105 -442h-172z" />
<glyph unicode="&#x164;" horiz-adv-x="997" d="M-12 1231v190h1024v-190h-410v-1231h-201v1231h-413zM141 1905h224l137 -136l133 136h223l-270 -285h-174z" />
<glyph unicode="&#x165;" horiz-adv-x="1064" d="M47 848v174h137v307h193v-307h301v-174h-301v-447q0 -145 22 -194q23 -47 105 -47l174 10l10 -168q-138 -25 -209 -25q-168 0 -231 80q-63 78 -64 299v492h-137zM797 924v497h188v-497h-188z" />
<glyph unicode="&#x166;" horiz-adv-x="997" d="M-12 1231v190h1024v-190h-410v-479h324v-168h-324v-584h-201v584h-305v168h305v479h-413z" />
<glyph unicode="&#x167;" horiz-adv-x="741" d="M47 848v174h137v307h193v-307h301v-174h-301v-236h-193v236h-137zM68 444v168h116v-168h-116zM184 356v88h193v-43q0 -145 22 -194q23 -47 105 -47l174 10l10 -168q-138 -25 -209 -25q-168 0 -231 80q-64 78 -64 299zM377 444v168h274v-168h-274z" />
<glyph unicode="&#x168;" horiz-adv-x="1316" d="M147 442v979h199v-979q0 -145 80 -206q78 -59 225 -60q152 0 232 61.5t80 204.5v979h200v-979q0 -246 -129 -352q-131 -109 -383 -108q-250 0 -377 110t-127 350zM279 1784l34 35q23 23 76 55q57 35 96 35q55 0 185 -54q123 -51 149 -51q45 0 160 90l45 -147 q-8 -10 -33 -35q-16 -16 -73 -53q-53 -35 -93 -35q-53 0 -182 53.5t-156 53.5q-55 0 -163 -95z" />
<glyph unicode="&#x169;" horiz-adv-x="1142" d="M150 489v533h194v-530q0 -199 35 -268.5t156 -69.5q49 0 114 16q68 16 101 31l36 14v807h195v-1022h-195v59q-158 -82 -286 -82q-209 0 -281 111q-69 108 -69 401zM217 1395l33 32q23 20 72 52q51 33 94 32q59 0 168 -49q102 -47 133 -47q45 0 151 82l43 -149l-30 -31 q-25 -25 -70 -51q-52 -31 -92 -31q-51 0 -162 49t-141 49q-20 0 -61.5 -22.5t-65.5 -40.5l-29 -23z" />
<glyph unicode="&#x16a;" horiz-adv-x="1316" d="M147 442v979h199v-979q0 -145 80 -206q78 -59 225 -60q152 0 232 61.5t80 204.5v979h200v-979q0 -246 -129 -352q-131 -109 -383 -108q-250 0 -377 110t-127 350zM328 1675v168h661v-168h-661z" />
<glyph unicode="&#x16b;" horiz-adv-x="1142" d="M150 489v533h194v-530q0 -199 35 -268.5t156 -69.5q49 0 114 16q68 16 101 31l36 14v807h195v-1022h-195v59q-158 -82 -286 -82q-209 0 -281 111q-69 108 -69 401zM262 1290v168h621v-168h-621z" />
<glyph unicode="&#x16c;" horiz-adv-x="1316" d="M147 442v979h199v-979q0 -145 80 -206q78 -59 225 -60q152 0 232 61.5t80 204.5v979h200v-979q0 -246 -129 -352q-131 -109 -383 -108q-250 0 -377 110t-127 350zM317 1898h201q3 -55 43 -86q43 -33 98 -32q57 0 101 32q40 31 43 86h201q-10 -127 -100.5 -204.5 t-244 -77.5t-243.5 78q-89 75 -99 204z" />
<glyph unicode="&#x16d;" horiz-adv-x="1142" d="M150 489v533h194v-530q0 -199 35 -268.5t156 -69.5q49 0 114 16q68 16 101 31l36 14v807h195v-1022h-195v59q-158 -82 -286 -82q-209 0 -281 111q-69 108 -69 401zM221 1511h199q2 -59 45 -98q37 -35 106 -35q72 0 111 35t41 98h201q-10 -139 -101 -223q-88 -82 -252 -82 q-162 0 -249 82q-91 84 -101 223z" />
<glyph unicode="&#x16e;" horiz-adv-x="1316" d="M147 442v979h199v-979q0 -145 80 -206q78 -59 225 -60q152 0 232 61.5t80 204.5v979h200v-979q0 -246 -129 -352q-131 -109 -383 -108q-250 0 -377 110t-127 350zM395 1726q0 109 74 170.5t190.5 61.5t190.5 -61.5t74 -170.5q0 -106 -74 -167.5t-190.5 -61.5t-190.5 61.5 t-74 167.5zM549 1726.5q0 -45.5 28.5 -68t81.5 -22.5q111 0 111 90q0 45 -29 68q-31 25 -82 25t-81 -25q-29 -22 -29 -67.5z" />
<glyph unicode="&#x16f;" horiz-adv-x="1142" d="M150 489v533h194v-530q0 -199 35 -268.5t156 -69.5q49 0 114 16q68 16 101 31l36 14v807h195v-1022h-195v59q-158 -82 -286 -82q-209 0 -281 111q-69 108 -69 401zM356 1317q0 92 64 156q66 66 160 65q92 0 157 -65q63 -63 64 -156q0 -94 -63.5 -157.5t-157.5 -63.5 q-96 0 -160 63.5t-64 157.5zM492 1317q0 -37 26.5 -63.5t61 -26.5t61.5 26.5t27 63.5t-27 63q-25 25 -61.5 25t-61.5 -25q-26 -26 -26 -63z" />
<glyph unicode="&#x170;" horiz-adv-x="1316" d="M147 442v979h199v-979q0 -145 80 -206q78 -59 225 -60q152 0 232 61.5t80 204.5v979h200v-979q0 -246 -129 -352q-131 -109 -383 -108q-250 0 -377 110t-127 350zM295 1614l240 313l165 -80l-251 -305zM719 1612l239 313l166 -78l-252 -307z" />
<glyph unicode="&#x171;" horiz-adv-x="1142" d="M150 489v533h194v-530q0 -199 35 -268.5t156 -69.5q49 0 114 16q68 16 101 31l36 14v807h195v-1022h-195v59q-158 -82 -286 -82q-209 0 -281 111q-69 108 -69 401zM233 1282l277 317l149 -104l-286 -315zM635 1282l278 317l148 -104l-287 -315z" />
<glyph unicode="&#x172;" horiz-adv-x="1316" d="M147 442v979h199v-979q0 -145 80 -206q78 -59 225 -60q152 0 232 61.5t80 204.5v979h200v-979q0 -369 -311 -440h2q-131 -119 -131 -190q0 -29 18 -52q18 -20 45 -20l93 10l20 -160q-96 -20 -178 -20q-88 0 -143.5 49t-55.5 137q0 109 123 226q-246 2 -373 110 q-125 106 -125 350z" />
<glyph unicode="&#x173;" horiz-adv-x="1142" d="M150 489v533h194v-530q0 -199 35 -268.5t156 -69.5q49 0 114 16q68 16 101 31l36 14v807h195v-1022h-8l4 2l-166 16q-12 -8 -23 -18h-2v59q-158 -82 -286 -82q-209 0 -281 111q-69 108 -69 401zM645 -244q0 121 143 244h185q-127 -127 -127 -188q0 -29 18 -52 q18 -20 45 -20l92 10l21 -160q-96 -20 -178 -20q-88 0 -143.5 49t-55.5 137z" />
<glyph unicode="&#x174;" horiz-adv-x="1867" d="M66 1421h206l246 -1218h49l256 1210h226l258 -1210h49l241 1218h207l-307 -1421h-330l-233 1124l-225 -1124h-332zM575 1624l271 285h176l270 -285h-221l-135 131l-135 -131h-226z" />
<glyph unicode="&#x175;" horiz-adv-x="1542" d="M45 1022h193l180 -848h39l213 830h204l213 -830h39l181 848h192l-227 -1022h-320l-182 743l-182 -743h-318zM434 1204l260 320h156l262 -320h-211l-127 158l-129 -158h-211z" />
<glyph unicode="&#x176;" horiz-adv-x="1142" d="M33 1421h221l319 -590l316 590h223l-438 -813v-608h-199v608zM213 1624l270 285h176l271 -285h-221l-136 131l-135 -131h-225z" />
<glyph unicode="&#x177;" horiz-adv-x="987" d="M39 1022h192l232 -836h61l234 836h192l-401 -1466h-193l121 444h-160zM156 1204l260 320h155l263 -320h-211l-127 158l-129 -158h-211z" />
<glyph unicode="&#x178;" horiz-adv-x="1142" d="M33 1421h221l319 -590l316 590h223l-438 -813v-608h-199v608zM264 1663v213h185v-213h-185zM696 1663v213h187v-213h-187z" />
<glyph unicode="&#x179;" horiz-adv-x="1165" d="M123 0v219l674 973v39h-674v190h921v-221l-673 -973v-37h673v-190h-921zM313 1751l473 191l68 -181l-479 -172z" />
<glyph unicode="&#x17a;" horiz-adv-x="978" d="M111 0v174l526 676h-526v174h759v-174l-526 -676h526v-174h-759zM207 1362l473 190l68 -180l-480 -172z" />
<glyph unicode="&#x17b;" horiz-adv-x="1165" d="M123 0v219l674 973v39h-674v190h921v-221l-673 -973v-37h673v-190h-921zM487 1647v211h193v-211h-193z" />
<glyph unicode="&#x17c;" horiz-adv-x="978" d="M111 0v174l526 676h-526v174h759v-174l-526 -676h526v-174h-759zM393 1212v211h193v-211h-193z" />
<glyph unicode="&#x17d;" horiz-adv-x="1165" d="M123 0v219l674 973v39h-674v190h921v-221l-673 -973v-37h673v-190h-921zM238 1909h223l137 -135l133 135h223l-270 -285h-174z" />
<glyph unicode="&#x17e;" horiz-adv-x="978" d="M111 0v174l526 676h-526v174h759v-174l-526 -676h526v-174h-759zM133 1524h211l129 -156l127 156h211l-260 -320h-160z" />
<glyph unicode="&#x192;" d="M143 -483l2 153l15 -2h35q6 0 22 -1t25 -1q12 0 24.5 -1t24.5 -1h41q137 0 137 201v889h-123v174h123v88q0 213 55 303q57 92 199 100q49 4 84 0q4 0 12 -1t12 -1q6 0 12.5 -1t12.5 -1t12 -1t13 -1q4 0 11 -1t11 -1t11.5 -1t9.5 -1h18q4 0 8 -1t6 -1t6 -1l3 -1h2l-2 -160 q-135 4 -168 4q-70 0 -101 -49q-33 -53 -32 -156v-116h280v-174h-280v-889q0 -201 -84 -285q-82 -82 -248 -82q-49 0 -80 4q-10 2 -27.5 4l-30 3.5t-20.5 3.5z" />
<glyph unicode="&#x1fa;" horiz-adv-x="1236" d="M53 0l350 1366q-47 59 -47 143q0 106 74 168t188 62q117 0 191 -61.5t74 -168.5q0 -82 -45 -139l348 -1368h-201l-92 317h-553l-88 -319h-199zM336 1948l473 190l68 -180l-480 -172zM383 510h469l-182 727h-101zM510 1509q0 -72 72 -88h75q72 16 72 88q0 90 -111 90 q-108 0 -108 -90z" />
<glyph unicode="&#x1fb;" horiz-adv-x="1071" d="M94 299q0 152 80 223q78 68 248 84l287 25v74q0 156 -152 155q-68 0 -166 -6q-100 -6 -164 -12l-63 -6l-8 168q262 41 411 40q169 0 252 -79q84 -80 84 -258v-463q2 -49 27 -70q27 -23 74 -29l-7 -165q-100 0 -159 16q-51 14 -101 57q-176 -76 -356 -76q-137 0 -211 84 q-76 86 -76 238zM264 1749l473 190l68 -180l-479 -172zM291 303q0 -158 125 -158q133 0 293 52v282l-265 -20q-153 -13 -153 -156zM303 1292q0 92 64 156q66 66 159 65q90 0 156 -65.5t66 -155.5q0 -92 -66 -157q-63 -63 -156 -64q-96 0 -159.5 63.5t-63.5 157.5zM438 1292 q0 -41 24.5 -65.5t65.5 -24.5q35 0 60 25q27 27 26 65q0 35 -26.5 61.5t-59.5 26.5q-39 0 -65 -26q-25 -25 -25 -62z" />
<glyph unicode="&#x1fc;" horiz-adv-x="1687" d="M88 0l432 1421h1231v-190h-678v-412h555v-188h-555v-441h678v-190h-874v319h-488l-98 -319h-203zM440 510h437l2 721h-217zM598 1751l473 191l68 -181l-480 -172z" />
<glyph unicode="&#x1fd;" horiz-adv-x="1693" d="M109 299q0 164 86 229q88 68 280 82l250 21v74q0 76 -41 116q-39 39 -113 39q-68 0 -165 -6q-29 -2 -83.5 -4t-76.5 -4l-66 -6l-8 170q262 35 410 34q201 0 272 -122q100 123 305 122q213 0 317.5 -114.5t104.5 -358.5l-12 -141h-651q2 -137 59 -207q55 -68 188 -67 q158 0 377 18l4 -154q-233 -43 -407 -43q-205 0 -305 107l-60 -27q-178 -80 -379 -80q-139 0 -213 84q-73 82 -73 238zM305 303q0 -158 125 -158q119 0 318 60q-27 98 -27 274l-260 -20q-82 -6 -119 -43t-37 -113zM596 1362l473 190l68 -180l-480 -172zM918 582h471 q0 160 -53.5 225t-176.5 65t-182 -69t-59 -221z" />
<glyph unicode="&#x1fe;" horiz-adv-x="1341" d="M98 702q0 375 125 558q125 184 441 184q129 0 229 -33l113 238l180 -68l-127 -270q172 -166 172 -609q0 -381 -123 -553t-444 -172q-117 0 -215 27l-119 -254l-176 78l125 266q-181 155 -181 608zM303 702q0 -289 72 -403l434 930q-68 23 -145 22q-207 0 -285 -133 q-76 -131 -76 -416zM375 1751l473 191l67 -181l-479 -172zM532 184q51 -14 132 -14q213 0 286.5 123t73.5 409q0 268 -66 396z" />
<glyph unicode="&#x1ff;" horiz-adv-x="1079" d="M92 520q0 268 103 395q104 129 348 129q82 0 137 -14l86 211l123 -45l-86 -213q186 -113 186 -463q0 -274 -98 -409q-96 -133 -348 -134q-76 0 -148 15l-88 -217l-123 45l90 217q-182 108 -182 483zM270 1362l473 190l68 -180l-479 -172zM289 520q0 -229 67 -305l258 647 q-23 8 -71 8q-143 0 -198.5 -80t-55.5 -270zM461 160q37 -6 82 -6q152 0 201 86t49 280q0 201 -70 283z" />
<glyph unicode="&#x218;" horiz-adv-x="1087" d="M80 1051q0 199 127 297q125 98 352 98q152 0 422 -47l-16 -180q-295 35 -406 34q-279 0 -278 -198q0 -111 65.5 -154t259.5 -90q225 -57 316 -139q88 -80 88 -262q0 -219 -123 -324q-125 -106 -348 -106q-68 0 -177 12q-150 16 -182 22l-74 13l21 180q272 -35 410 -35 q141 0 208 55q66 53 66 176q0 96 -61 144q-61 45 -232 86q-242 55 -340 141.5t-98 276.5zM385 -600l88 442h189l-105 -442h-172z" />
<glyph unicode="&#x219;" horiz-adv-x="1003" d="M106 735q0 160 107 234q111 76 272 75q55 0 162 -10q102 -10 156 -20l61 -13l-4 -163q-229 33 -362 32q-98 0 -147.5 -30.5t-49.5 -100.5q0 -57 45 -82q53 -29 189 -49q207 -35 284.5 -96t77.5 -209q0 -172 -104 -250q-102 -76 -299 -76q-76 0 -154 11q-37 4 -93.5 13 t-62.5 9l-61 10l8 166q236 -33 346 -32q117 0 172 32q53 31 53 111q0 63 -43 88q-45 27 -182 47q-203 33 -289 94q-82 57 -82 209zM362 -600l89 442h188l-104 -442h-173z" />
<glyph unicode="&#x2c6;" horiz-adv-x="503" d="M-63 1204l260 320h155l262 -320h-211l-127 158l-129 -158h-210z" />
<glyph unicode="&#x2c7;" horiz-adv-x="503" d="M-55 1524h211l129 -156l127 156h211l-261 -320h-159z" />
<glyph unicode="&#x2d8;" horiz-adv-x="503" d="M-74 1511h199q2 -59 45 -98q37 -35 109 -35q141 0 151 133h199q-10 -139 -101 -223q-88 -82 -249 -82q-164 0 -252 82q-91 84 -101 223z" />
<glyph unicode="&#x2d9;" horiz-adv-x="503" d="M156 1212v211h194v-211h-194z" />
<glyph unicode="&#x2da;" horiz-adv-x="503" d="M37 1317q0 90 65.5 155.5t157.5 65.5q90 0 155.5 -65.5t65.5 -155.5q0 -92 -65 -158q-63 -63 -156 -63q-96 0 -159.5 63.5t-63.5 157.5zM172 1317q0 -39 25 -64q27 -27 65 -26q33 0 59.5 26.5t26.5 63.5t-26 63q-25 25 -60 25q-41 0 -65.5 -24.5t-24.5 -63.5z" />
<glyph unicode="&#x2db;" horiz-adv-x="935" d="M408 -244q0 121 151 250l14 12l166 -16q-131 -119 -131 -190q0 -33 17 -52q18 -20 47 -20l92 10l20 -160q-96 -20 -178 -20q-88 0 -143 49t-55 137z" />
<glyph unicode="&#x2dc;" horiz-adv-x="503" d="M-72 1395l33 32q16 14 74 52q51 33 92 32q61 0 168 -49q102 -47 133 -47q49 0 152 82l43 -149q-12 -16 -29 -31q-27 -25 -72 -51q-49 -31 -90 -31q-53 0 -163.5 49t-141.5 49q-20 0 -61 -22.5t-66 -40.5l-29 -23z" />
<glyph unicode="&#x2dd;" horiz-adv-x="503" d="M-102 1282l276 317l150 -104l-289 -315zM299 1282l276 317l150 -104l-287 -315z" />
<glyph unicode="&#x300;" horiz-adv-x="503" d="M23 1380l63 172l473 -192l-57 -152z" />
<glyph unicode="&#x301;" horiz-adv-x="503" d="M-6 1362l473 190l68 -180l-480 -172z" />
<glyph unicode="&#x302;" horiz-adv-x="503" d="M-49 1204l260 320h156l262 -320h-211l-127 158l-129 -158h-211z" />
<glyph unicode="&#x303;" horiz-adv-x="503" d="M-72 1395l33 32q16 14 74 52q51 33 92 32q61 0 168 -49q102 -47 133 -47q49 0 152 82l43 -149q-12 -16 -29 -31q-27 -25 -72 -51q-49 -31 -90 -31q-53 0 -163.5 49t-141.5 49q-20 0 -61 -22.5t-66 -40.5l-29 -23z" />
<glyph unicode="&#x304;" horiz-adv-x="503" d="M-47 1290v168h620v-168h-620z" />
<glyph unicode="&#x306;" horiz-adv-x="503" d="M-74 1511h199q2 -59 45 -98q37 -35 109 -35q141 0 151 133h199q-10 -139 -101 -223q-88 -82 -249 -82q-164 0 -252 82q-91 84 -101 223z" />
<glyph unicode="&#x307;" horiz-adv-x="503" d="M156 1212v211h194v-211h-194z" />
<glyph unicode="&#x308;" horiz-adv-x="503" d="M-37 1268v213h187v-213h-187zM385 1268v213h184v-213h-184z" />
<glyph unicode="&#x30a;" horiz-adv-x="503" d="M43 1317q0 92 63 156q66 66 160 65q90 0 155.5 -65.5t65.5 -155.5q0 -92 -65 -158q-63 -63 -156 -63q-96 0 -159.5 63.5t-63.5 157.5zM178 1317q0 -39 25 -64q27 -27 65 -26q33 0 59.5 26.5t26.5 63.5t-26 63q-25 25 -60 25q-41 0 -65.5 -24.5t-24.5 -63.5z" />
<glyph unicode="&#x30b;" horiz-adv-x="503" d="M-102 1282l276 317l150 -104l-289 -315zM299 1282l276 317l150 -104l-287 -315z" />
<glyph unicode="&#x30c;" horiz-adv-x="503" d="M-70 1524h211l129 -156l127 156h211l-260 -320h-160z" />
<glyph unicode="&#x312;" horiz-adv-x="346" d="M29 1202l104 443h172l-88 -443h-188z" />
<glyph unicode="&#x315;" horiz-adv-x="323" d="M61 924v497h189v-497h-189z" />
<glyph unicode="&#x326;" horiz-adv-x="346" d="M29 -600l88 442h188l-104 -442h-172z" />
<glyph unicode="&#x327;" horiz-adv-x="1343" d="M588 -444l6 118q98 -4 123 -4q86 0 86 70q0 61 -86 61h-74v201h92v-94q129 -4 180 -35q55 -33 56 -133q0 -201 -203 -201q-23 0 -84 4q-12 0 -72 8z" />
<glyph unicode="&#x328;" horiz-adv-x="935" d="M408 -244q0 121 151 250l14 12l166 -16q-131 -119 -131 -190q0 -33 17 -52q18 -20 47 -20l92 10l20 -160q-96 -20 -178 -20q-88 0 -143 49t-55 137z" />
<glyph unicode="&#x394;" d="M76 0v162l301 1227h338l301 -1229v-160h-940zM279 180h534l-246 1028h-43z" />
<glyph unicode="&#x2206;" d="M76 0v162l301 1227h338l301 -1229v-160h-940zM279 180h534l-246 1028h-43z" />
<glyph unicode="&#x3a9;" d="M68 -18v172h208q-2 4 -20 34q-25 43 -47 88q-37 76 -59 136q-27 74 -48 163q-23 100 -22 183q0 326 102 471q100 143 360.5 143t361 -143.5t100.5 -470.5q0 -138 -50 -289q-51 -158 -98 -233l-47 -82h209v-172h-410v151l56 96q25 43 86 220q55 157 55 276q0 246 -53 356 q-51 106 -209 107q-88 0 -140 -27q-52 -28 -79 -92q-25 -57 -35 -141q-8 -68 -8 -203q0 -242 178 -561l18 -31v-151h-409z" />
<glyph unicode="&#x2126;" d="M68 -18v172h208q-2 4 -20 34q-25 43 -47 88q-37 76 -59 136q-27 74 -48 163q-23 100 -22 183q0 326 102 471q100 143 360.5 143t361 -143.5t100.5 -470.5q0 -138 -50 -289q-51 -158 -98 -233l-47 -82h209v-172h-410v151l56 96q25 43 86 220q55 157 55 276q0 246 -53 356 q-51 106 -209 107q-88 0 -140 -27q-52 -28 -79 -92q-25 -57 -35 -141q-8 -68 -8 -203q0 -242 178 -561l18 -31v-151h-409z" />
<glyph unicode="&#x3c0;" d="M8 825v172q66 12 127 17q29 2 129 8l51 2h443q197 0 295 33v-172q-59 -25 -176 -31v-539q0 -94 32 -125q37 -33 133 -32v-170q-223 0 -292 65q-68 66 -68 262v537h-270l-56 -852h-194l55 852q-74 -4 -106 -8q-35 -4 -76 -15z" />
<glyph unicode="&#x1e80;" horiz-adv-x="1867" d="M66 1421h206l246 -1218h49l256 1210h226l258 -1210h49l241 1218h207l-307 -1421h-330l-233 1124l-225 -1124h-332zM684 1747l66 182l473 -192l-62 -160z" />
<glyph unicode="&#x1e81;" horiz-adv-x="1542" d="M45 1022h193l180 -848h39l213 830h204l213 -830h39l181 848h192l-227 -1022h-320l-182 743l-182 -743h-318zM504 1380l63 172l473 -192l-57 -152z" />
<glyph unicode="&#x1e82;" horiz-adv-x="1867" d="M66 1421h206l246 -1218h49l256 1210h226l258 -1210h49l241 1218h207l-307 -1421h-330l-233 1124l-225 -1124h-332zM674 1751l473 191l67 -181l-479 -172z" />
<glyph unicode="&#x1e83;" horiz-adv-x="1542" d="M45 1022h193l180 -848h39l213 830h204l213 -830h39l181 848h192l-227 -1022h-320l-182 743l-182 -743h-318zM500 1362l473 190l67 -180l-479 -172z" />
<glyph unicode="&#x1e84;" horiz-adv-x="1867" d="M66 1421h206l246 -1218h49l256 1210h226l258 -1210h49l241 1218h207l-307 -1421h-330l-233 1124l-225 -1124h-332zM625 1663v213h186v-213h-186zM1059 1663v213h184v-213h-184z" />
<glyph unicode="&#x1e85;" horiz-adv-x="1542" d="M45 1022h193l180 -848h39l213 830h204l213 -830h39l181 848h192l-227 -1022h-320l-182 743l-182 -743h-318zM469 1268v213h186v-213h-186zM891 1268v213h184v-213h-184z" />
<glyph unicode="&#x1eab;" horiz-adv-x="1085" d="M94 299q0 152 80 223q78 68 248 84l287 25v74q0 156 -152 155q-68 0 -166 -6q-100 -6 -164 -12l-63 -6l-8 168q262 41 411 40q169 0 252 -79q84 -80 84 -258v-463q2 -49 27 -70q27 -23 74 -29l-7 -165q-100 0 -159 16q-51 14 -101 57q-176 -76 -356 -76q-137 0 -211 84 q-76 86 -76 238zM139 1673q4 6 12.5 12.5t20.5 18.5q27 23 74 53q51 33 92 33q66 0 168 -47q109 -49 133 -49q49 0 152 82l43 -150q-12 -16 -29 -31q-27 -25 -72 -51q-49 -31 -90 -31q-53 0 -163.5 49.5t-141.5 49.5q-23 0 -62 -21q-25 -14 -65 -45l-29 -20zM162 1143 l260 319h156l262 -319h-211l-127 157l-129 -157h-211zM291 303q0 -158 125 -158q133 0 293 52v282l-265 -20q-153 -13 -153 -156z" />
<glyph unicode="&#x1eb0;" horiz-adv-x="1236" d="M53 0l365 1421h407l361 -1419h-201l-92 317h-553l-88 -319h-199zM242 2095l63 172l473 -192l-57 -152zM281 1827h198q2 -53 43 -88q39 -33 100.5 -33t100.5 33q41 35 43 88h199q-10 -131 -99 -207q-90 -78 -243 -78q-152 0 -242 78q-92 78 -100 207zM383 510h469 l-182 727h-101z" />
<glyph unicode="&#x1ec5;" horiz-adv-x="1036" d="M92 504q0 541 436 540q215 0 319.5 -114.5t104.5 -358.5l-12 -141h-651q0 -141 57 -207q58 -68 191 -67q160 0 376 18l5 -154q-233 -43 -408 -43q-227 4 -322 127q-96 128 -96 400zM168 1673q4 6 12 12.5t21 18.5q27 23 73 53q51 33 93 33q66 0 168 -47q109 -49 133 -49 q49 0 151 82l43 -150l-31 -31q-25 -25 -67 -51q-49 -31 -92 -31q-53 0 -164 49.5t-141 49.5q-23 0 -62 -21q-25 -14 -65 -45l-29 -20zM190 1143l261 319h155l262 -319h-211l-127 157l-129 -157h-211zM287 582h473q0 160 -53.5 225t-178.5 65q-123 0 -180 -67t-61 -223z" />
<glyph unicode="&#x1ed7;" horiz-adv-x="1087" d="M92 520q0 268 103 395q104 129 348 129q238 0 342 -131q104 -132 104 -393q0 -274 -98 -409q-96 -133 -348 -133.5t-350 131.5q-101 135 -101 411zM160 1673q4 6 12 12.5t21 18.5q33 29 71 53q51 33 94 33q66 0 168 -47q109 -49 133 -49q49 0 152 82l43 -150 q-6 -8 -29 -31q-20 -20 -69 -51t-92 -31q-53 0 -164 49.5t-142 49.5q-23 0 -61 -21q-31 -16 -68 -45l-26 -20zM195 1143l260 319h155l262 -319h-210l-127 157l-129 -157h-211zM289 520q0 -203 51 -284.5t202.5 -81.5t201 86t49.5 280q0 184 -58 266q-59 84 -192 84 q-143 0 -198.5 -80t-55.5 -270z" />
<glyph unicode="&#x1ef2;" horiz-adv-x="1142" d="M33 1421h221l319 -590l316 590h223l-438 -813v-608h-199v608zM330 1747l65 182l473 -192l-61 -160z" />
<glyph unicode="&#x1ef3;" horiz-adv-x="987" d="M39 1022h192l232 -836h61l234 836h192l-401 -1466h-193l121 444h-160zM227 1380l64 172l473 -192l-57 -152z" />
<glyph unicode="&#x1ef8;" horiz-adv-x="1142" d="M33 1421h221l319 -590l316 590h223l-438 -813v-608h-199v608zM217 1794l12.5 12.5t20.5 18.5q33 29 72 53q51 33 94 33q66 0 168 -47q109 -49 133 -49q49 0 151 81l43 -149l-30 -31q-20 -20 -69.5 -51t-90.5 -31q-53 0 -164 49.5t-141 49.5q-23 0 -62 -21 q-25 -12 -65 -45l-29 -20z" />
<glyph unicode="&#x1ef9;" horiz-adv-x="987" d="M39 1022h192l232 -836h61l234 836h192l-401 -1466h-193l121 444h-160zM137 1395l33 32q23 20 72 52q51 33 94 32q61 0 168 -49q102 -47 133 -47q49 0 151 82l43 -149l-30 -31q-20 -20 -69.5 -51t-90.5 -31q-53 0 -163.5 49t-141.5 49q-20 0 -61.5 -22.5t-65.5 -40.5 l-29 -23z" />
<glyph unicode="&#x2000;" horiz-adv-x="1132" />
<glyph unicode="&#x2001;" horiz-adv-x="2265" />
<glyph unicode="&#x2002;" horiz-adv-x="1132" />
<glyph unicode="&#x2003;" horiz-adv-x="2265" />
<glyph unicode="&#x2004;" horiz-adv-x="753" />
<glyph unicode="&#x2005;" horiz-adv-x="565" />
<glyph unicode="&#x2006;" horiz-adv-x="376" />
<glyph unicode="&#x2007;" horiz-adv-x="376" />
<glyph unicode="&#x2008;" horiz-adv-x="282" />
<glyph unicode="&#x2009;" horiz-adv-x="452" />
<glyph unicode="&#x200a;" horiz-adv-x="124" />
<glyph unicode="&#x2010;" horiz-adv-x="899" d="M135 481v189h631v-189h-631z" />
<glyph unicode="&#x2011;" horiz-adv-x="899" d="M135 481v189h631v-189h-631z" />
<glyph unicode="&#x2012;" horiz-adv-x="899" d="M135 481v189h631v-189h-631z" />
<glyph unicode="&#x2013;" horiz-adv-x="1024" d="M0 469v176h1024v-176h-1024z" />
<glyph unicode="&#x2014;" horiz-adv-x="2048" d="M0 469v176h2048v-176h-2048z" />
<glyph unicode="&#x2018;" horiz-adv-x="346" d="M2 1022l111 467h184l-94 -467h-201z" />
<glyph unicode="&#x2019;" horiz-adv-x="346" d="M49 1079l94 467h201l-111 -467h-184z" />
<glyph unicode="&#x201a;" horiz-adv-x="411" d="M33 -229l110 467h185l-95 -467h-200z" />
<glyph unicode="&#x201c;" horiz-adv-x="878" d="M231 1022l111 467h279l-95 -467h-295z" />
<glyph unicode="&#x201d;" horiz-adv-x="888" d="M156 1016l94 467h201l-111 -467h-184zM485 1016l95 467h200l-110 -467h-185z" />
<glyph unicode="&#x201e;" horiz-adv-x="815" d="M33 -229l110 467h185l-95 -467h-200zM428 -229l111 467h184l-94 -467h-201z" />
<glyph unicode="&#x2020;" d="M117 829v189h329v377h191v-377h330v-189h-330v-981h-191v981h-329z" />
<glyph unicode="&#x2021;" d="M117 225v189h329v415h-329v189h329v377h191v-377h330v-189h-330v-415h330v-189h-330v-377h-191v377h-329z" />
<glyph unicode="&#x2022;" d="M293 213v582h500v-582h-500z" />
<glyph unicode="&#x2026;" horiz-adv-x="1521" d="M154 0v270h211v-270h-211zM676 0v270h209v-270h-209zM1196 0v270h211v-270h-211z" />
<glyph unicode="&#x202f;" horiz-adv-x="452" />
<glyph unicode="&#x2030;" horiz-adv-x="1703" d="M31 1149q0 287 231.5 287t231.5 -289q0 -145 -60 -217q-61 -74 -172 -74q-231 0 -231 293zM180 1149q0 -170 82 -170q45 0 63.5 41t18.5 127q0 90 -18.5 127t-63.5 37t-63.5 -37t-18.5 -125zM299 4l387 1454l133 -35l-387 -1452zM618 293q0 287 231.5 287t231.5 -287 q0 -147 -59 -219q-61 -74 -172 -74q-232 0 -232 293zM766 293q0 -88 18 -127q18 -41 66 -41q45 0 63 41q18 39 19 127q0 94 -17 127q-18 37 -65 37t-66 -39q-18 -41 -18 -125zM1145 293q0 287 231.5 287t231.5 -287q0 -147 -60 -219q-61 -74 -172 -74q-109 0 -170 74 t-61 219zM1294 293q0 -88 19 -127q18 -41 63 -41q47 0 66 41q18 39 18 127q0 84 -18 125q-18 39 -66 39q-45 0 -63 -39q-19 -41 -19 -125z" />
<glyph unicode="&#x2039;" horiz-adv-x="698" d="M129 430v148l412 307v-199l-246 -178l246 -201v-201z" />
<glyph unicode="&#x203a;" horiz-adv-x="698" d="M160 119v200l243 201l-243 178v199l411 -307v-148z" />
<glyph unicode="&#x205f;" horiz-adv-x="565" />
<glyph unicode="&#x2070;" horiz-adv-x="540" d="M25 1298q0 184 61 262t188 78t189 -77q63 -80 63 -265q0 -182 -63 -262q-61 -76 -188.5 -76t-188.5 76q-61 77 -61 264zM190 1296q0 -114 19 -153q18 -41 65 -41q43 0 66 41q20 39 20 155q0 106 -20 154q-18 43 -65.5 43t-66 -43t-18.5 -156z" />
<glyph unicode="&#x2074;" horiz-adv-x="540" d="M27 1069v133l120 416h177l-136 -406h121l17 183h141v-183h45v-143h-45v-90h-158v90h-282z" />
<glyph unicode="&#x2075;" horiz-adv-x="540" d="M53 989l13 133q109 -20 192 -20q82 0 82 78q0 72 -64 71q-22 0 -43 -6q-33 -10 -34 -10l-13 -6l-120 14l20 375h397v-139h-266l-10 -115q51 27 106 27q195 0 195 -203q0 -113 -59 -168q-61 -57 -170 -57q-89 -1 -226 26z" />
<glyph unicode="&#x2076;" horiz-adv-x="540" d="M33 1284q0 180 63 268q61 86 203 86q33 0 82 -6q76 -10 80 -10l31 -6l-9 -133q-106 14 -180 14q-104 0 -104 -117l16 4l43 11q29 6 47 6q211 0 211 -211q0 -102 -65 -168q-63 -63 -168 -64q-250 0 -250 326zM197 1239q4 -139 79.5 -139t75.5 88q0 41 -16 61 q-15 18 -55 19q-12 0 -41 -8q-14 -4 -31 -13q-12 -6 -12 -8z" />
<glyph unicode="&#x2077;" horiz-adv-x="540" d="M51 1460v158h436v-174l-206 -483l-179 28l201 436v35h-252z" />
<glyph unicode="&#x2078;" horiz-adv-x="540" d="M23 1159q0 121 88 154q-78 31 -78 149q0 176 239.5 176t239.5 -178q0 -63 -22.5 -100t-55.5 -47q88 -27 88 -150q0 -115 -63.5 -160t-186 -45t-186 45t-63.5 156zM186 1163q0 -74 86 -73q84 0 84 75q0 57 -61 82h-47q-62 -27 -62 -84zM193 1444q0 -51 55 -78h47 q55 23 55 78q0 63 -78 63q-79 0 -79 -63z" />
<glyph unicode="&#x2079;" horiz-adv-x="540" d="M31 1411q0 104 65 166q63 61 168 61q127 0 188.5 -84t61.5 -256q0 -180 -61.5 -260t-198.5 -80q-88 0 -199 25l11 133q88 -14 170 -14q106 0 110 112l-14 -4q-4 -2 -18.5 -5l-24.5 -5q-18 -4 -51 -4q-100 0 -153.5 57.5t-53.5 157.5zM193 1411q0 -37 20 -63 q16 -23 51 -23t88 25q-4 147 -84 147q-75 0 -75 -86z" />
<glyph unicode="&#x2080;" horiz-adv-x="540" d="M25 319q0 184 61 262t188 78t189 -77q63 -80 63 -265q0 -182 -63 -262q-61 -76 -188.5 -75.5t-188.5 75.5q-61 77 -61 264zM190 317q0 -114 19 -153q18 -41 65 -41q43 0 66 41q20 39 20 155q0 106 -20 154q-18 43 -65.5 43t-66 -43t-18.5 -156z" />
<glyph unicode="&#x2081;" horiz-adv-x="540" d="M51 492l211 147h148v-639h-160v463l-125 -84z" />
<glyph unicode="&#x2082;" horiz-adv-x="540" d="M41 0v139l170 158q100 88 100 149q0 59 -92 60l-168 -17l-6 150q125 20 221 20q115 0 162 -45q49 -46 49 -147q0 -66 -28 -117q-28 -49 -93 -104l-108 -101h235v-145h-442z" />
<glyph unicode="&#x2083;" horiz-adv-x="540" d="M49 -2l8 141q127 -16 201 -16q88 0 88 67.5t-82 67.5h-133v133h131q25 0 47 19q20 18 21 49q0 57 -82 57l-182 -14l-9 137q121 20 213 20q227 0 228 -174q0 -111 -76 -149q49 -16 69.5 -49t20.5 -107q0 -201 -227 -200q-101 0 -236 18z" />
<glyph unicode="&#x2084;" horiz-adv-x="540" d="M27 90v133l120 416h177l-136 -406h121l17 183h141v-183h45v-143h-45v-90h-158v90h-282z" />
<glyph unicode="&#x2085;" horiz-adv-x="540" d="M53 10l13 133q109 -20 192 -20q82 0 82 78q0 72 -64 71q-22 0 -43 -6q-33 -10 -34 -10l-13 -6l-120 14l20 375h397v-139h-266l-10 -115q51 27 106 27q195 0 195 -203q0 -113 -59 -168q-61 -57 -170 -57q-89 -1 -226 26z" />
<glyph unicode="&#x2086;" horiz-adv-x="540" d="M33 305q0 180 63 268q61 86 203 86q33 0 82 -6t80 -12l31 -4l-9 -133q-106 14 -180 14q-104 0 -104 -117l16 5q6 0 20.5 4t22.5 6q29 6 47 6q211 0 211 -211q0 -106 -65 -168q-68 -63 -168 -63q-250 -1 -250 325zM197 260q4 -139 79.5 -139t75.5 88q0 41 -16 61 q-15 18 -55 19q-12 0 -41 -8q-14 -4 -31 -13q-12 -6 -12 -8z" />
<glyph unicode="&#x2087;" horiz-adv-x="540" d="M51 481v158h436v-174l-206 -483l-179 28l201 436v35h-252z" />
<glyph unicode="&#x2088;" horiz-adv-x="540" d="M23 180q0 121 88 154q-78 31 -78 149q0 176 239.5 176t239.5 -178q0 -63 -22.5 -100t-55.5 -47q88 -27 88 -150q0 -115 -63.5 -159.5t-186.5 -44.5q-121 0 -186 47q-63 44 -63 153zM186 184q0 -74 86 -73q84 0 84 75q0 57 -61 82h-47q-62 -27 -62 -84zM193 465 q0 -51 55 -78h47q55 23 55 78q0 63 -78 63q-79 0 -79 -63z" />
<glyph unicode="&#x2089;" horiz-adv-x="540" d="M31 432q0 104 65 166q63 61 168 61q127 0 188.5 -83.5t61.5 -256.5q0 -180 -61.5 -259.5t-198.5 -79.5q-88 0 -199 24l11 133q88 -14 170 -14q109 0 110 113l-14 -5q-4 -2 -18.5 -5l-24.5 -5q-18 -4 -51 -4q-100 0 -153.5 57.5t-53.5 157.5zM193 432q0 -37 20 -63 q16 -23 51 -23t88 25q-4 147 -84 147q-75 0 -75 -86z" />
<glyph unicode="&#x20ac;" horiz-adv-x="1161" d="M88 434v156h115v172h-115v156h125q29 248 141 354q115 109 361 108q186 0 362 -39l-8 -178q-209 23 -330 23q-157 0 -227 -62q-68 -59 -90 -209h512v-153h-524q-2 -18 -2 -86q0 -70 2 -86h524v-156h-512q20 -141 90 -201q70 -61 231 -61q106 0 326 23l6 -181 q-199 -37 -360 -37q-252 0 -365 109q-109 106 -137 348h-125z" />
<glyph unicode="&#x2122;" d="M14 1178v122h410v-122h-119v-498h-135v498h-156zM483 678v622h168l119 -393l127 393h166v-622h-127v426l-115 -391h-96l-115 391v-426h-127z" />
<glyph unicode="&#x2211;" horiz-adv-x="1703" />
<glyph unicode="&#x2212;" d="M80 502v176h921v-176h-921z" />
<glyph unicode="&#x221e;" horiz-adv-x="1089" d="M49 596q0 352 262 352q86 0 138 -39q55 -41 96 -125q43 86 94 125t139 39q127 0 195 -90q68 -88 67 -260q0 -350 -266 -350q-80 0 -135 39q-51 37 -92 121q-41 -88 -94 -125q-51 -35 -138 -35q-266 0 -266 348zM231 596q0 -166 95 -166q25 0 43 6q16 6 32 29 q4 6 13.5 17.5t11.5 15.5q8 14 23 51q10 25 22 49q-16 33 -20 43q-16 39 -19 43q-6 9 -18 31q-14 25 -23 30q-14 10 -29 15q-18 6 -36 6q-95 0 -95 -170zM618 598l23 -49q14 -37 23 -51q2 -4 11 -15.5t13 -17.5q16 -23 34.5 -29t41.5 -6q96 0 96 166q0 170 -96 170 q-18 0 -37 -6q-14 -4 -29 -15q-8 -6 -22 -30q-12 -22 -19 -31q-8 -12 -20.5 -43t-18.5 -43z" />
<glyph unicode="&#x2248;" d="M127 414q6 6 35 30q14 12 84 48q61 31 120.5 30.5t194.5 -49.5t180 -49q78 0 201 92l16 -184q-18 -18 -32.5 -30.5t-79.5 -47.5q-59 -31 -113 -31q-61 0 -198 49q-138 49 -179 50q-88 0 -211 -93zM127 823q6 6 35 31q14 12 84 47q61 31 120.5 31t194.5 -49t180 -49 q78 0 201 92l16 -185q-18 -18 -32 -30q-22 -18 -80 -49q-55 -29 -113 -29q-61 0 -198 49q-138 49 -179 49q-88 0 -211 -92z" />
<glyph unicode="&#x2260;" d="M76 270v176h323l105 242h-428v178h506l139 312l162 -64l-111 -248h236v-178h-314l-106 -242h420v-176h-498l-135 -311l-162 64l109 247h-246z" />
<glyph unicode="&#x2264;" d="M152 53v193h755v-193h-755zM152 602v250l755 264v-205l-567 -180l567 -194v-205z" />
<glyph unicode="&#x2265;" d="M178 53v193h768v-193h-768zM178 332v205l580 194l-580 180v205l768 -264v-250z" />
<glyph unicode="&#xe000;" horiz-adv-x="1020" d="M0 1020h1020v-1020h-1020v1020z" />
<glyph horiz-adv-x="479" />
<glyph horiz-adv-x="1099" d="M207 0v1495h72v-534q174 82 352 81q203 0 276 -116q72 -113 72 -391q0 -299 -96.5 -426t-370.5 -127q-139 0 -305 18zM279 59q160 -12 231 -12q129 0 207 26.5t119 94.5q43 72 55 147q12 83 12 215q0 246 -53 344q-55 102 -219 103q-86 0 -170 -21q-98 -25 -135 -41 l-47 -20v-836z" />
<glyph horiz-adv-x="1282" d="M211 0v1434h491q209 0 311.5 -84t102.5 -265q0 -272 -198 -346q254 -70 253 -338q0 -221 -110 -311q-113 -90 -320 -90h-530zM285 70h456q168 0 263 75q92 74 92 256q0 297 -371 297h-440v-628zM285 766h440q163 0 240 80q76 78 75 239q0 150 -82 213q-84 66 -256 66 h-417v-598z" />
<glyph horiz-adv-x="980" d="M72 1024h75l299 -958h89l301 958h75l-321 -1024h-201z" />
<glyph horiz-adv-x="931" d="M78 0l346 512l-346 512h82l307 -457l307 457h82l-346 -512l346 -512h-84l-305 457l-305 -457h-84z" />
<glyph d="M94 690q0 371 129 526.5t375 155.5q174 0 328 -39l-8 -67q-147 37 -320 37q-209 0 -317 -136q-109 -137 -109 -446q0 4 57 31q68 31 156 59q92 29 178 29q428 0 428 -414q0 -444 -438 -444q-238 0 -348.5 178t-110.5 530zM170 649q2 -295 94 -448q88 -150 289 -150 q197 0 278 92q82 90 82 283q0 168 -79.5 256t-274.5 88q-174 -6 -385 -119z" />
<glyph d="M96 928q0 213 113 327q115 117 334 117q231 0 340 -178q109 -180 108 -530q0 -369 -123 -527q-123 -156 -364 -155q-74 0 -164 12q-106 14 -137 20l-51 11l12 65q164 -39 340 -39q207 0 309 139.5t102 452.5q0 -4 -57 -31q-53 -25 -156 -57q-98 -31 -178 -31 q-219 0 -323 109q-105 108 -105 295zM174 928q0 -152 86 -244q84 -90 268 -90q174 6 385 119l5 2q-10 588 -375 588q-369 0 -369 -375z" />
<glyph horiz-adv-x="1335" d="M211 0v1434h586q119 0 209 -72q86 -70 131 -186q39 -102 59 -224q18 -108 18 -215q0 -53 -8 -159q-4 -63 -32 -189q-27 -115 -66 -192q-41 -78 -125 -140q-78 -57 -186 -57h-586zM285 70h512q92 0 157 57q72 61 103 133q35 82 53 180q20 113 23 170q4 86 4 127 q0 74 -15 160q-18 106 -47 205q-35 115 -106 186q-76 76 -172 76h-512v-1294z" />
<glyph d="M211 0v1434h74v-1364h698v-70h-772z" />
<glyph horiz-adv-x="0" />
<glyph d="M59 1165q0 143 52 207q53 66 165.5 66t163.5 -64q53 -66 54 -211q0 -283 -218 -282q-111 0 -164 69.5t-53 214.5zM131 1165q0 -113 33 -166t112 -53q82 0 113 53q33 55 33 164q0 106 -33 160q-31 49 -113 49q-78 0 -112 -51q-33 -47 -33 -156zM381 12l295 1424l74 -15 l-295 -1423zM635 285q0 143 51 207q53 66 166 65q111 0 164 -65.5t53 -208.5q0 -283 -217 -283q-111 0 -164 68q-53 70 -53 217zM707 284.5q0 -110.5 32 -163.5q35 -55 113 -55q82 0 113 53q33 55 32 164q0 106 -32 159q-31 49 -113 50q-78 0 -113 -50q-32 -47 -32 -157.5z " />
<glyph d="M279 938l225 164l-223 164l41 55l225 -166l86 264l65 -20l-86 -266h277v-70h-281l86 -264l-65 -21l-86 266l-226 -161z" />
<glyph horiz-adv-x="530" d="M10 616q0 172 51 412q47 223 99 369l49 139h72q-27 -72 -54 -158q-29 -92 -86 -346q-55 -246 -55 -416q0 -341 178 -829l17 -43h-72l-55 139q-31 82 -88 320q-56 231 -56 413z" />
<glyph horiz-adv-x="530" d="M-8 -246q39 109 55 158q23 76 84 344q55 246 55 418q0 341 -178 829l-16 43h71l56 -139q31 -82 88 -320q55 -231 55 -413q0 -181 -49 -411.5t-98 -368.5l-52 -140h-71z" />
<glyph horiz-adv-x="581" d="M0 602v66q117 28 166 86q47 55 47 159q0 27 -6 125q-8 131 -8 138q0 182 84 270q80 82 276 92l4 -65q-172 -10 -231 -78q-61 -72 -62 -219q0 -37 6 -125l9 -119q0 -135 -45 -195q-47 -63 -160 -100q115 -37 160 -100.5t45 -190.5l-15 -237q0 -145 62 -218q61 -70 231 -79 l-4 -66q-199 10 -278 92q-82 84 -82 271q0 14 8 137q6 92 6 114q0 100 -47 153.5t-166 88.5z" />
<glyph horiz-adv-x="1931" d="M123 711q0 379 119 559q121 182 430 182q221 0 301 -18h837v-74h-763v-586h641v-74h-641v-626h763v-74h-833v-2q-76 -16 -305 -16q-168 0 -273 45q-106 45 -168 143q-59 96 -84 223q-24 130 -24 318zM201 711q0 -174 18 -287q18 -109 70 -203q49 -90 143 -129 q98 -41 240 -41q218 0 301 19v1288q-80 25 -301 24q-143 0 -237.5 -43t-143.5 -135q-53 -100 -70 -205q-20 -128 -20 -288zM973 1358l2 -680v680h-2z" />
<glyph horiz-adv-x="1703" d="M469 434v66h379v477h-379v65h379v392h72v-392h378v-65h-378v-477h378v-66h-378v-434h-72v434h-379z" />
<glyph horiz-adv-x="788" d="M10 1397q231 55 340 55q201 0 307 -76q102 -72 103 -248q0 -98 -41 -174q-43 -80 -103 -139q-59 -57 -120 -110q-55 -47 -103 -115q-41 -59 -41 -123v-78h-71v84q0 70 43 137.5t102 120.5l119 113q57 57 100 131t43 153q0 139 -84 199q-82 57 -254 57q-100 0 -330 -57z M276 2v164h82v-164h-82z" />
<glyph horiz-adv-x="286" d="M51 0v164h82v-164h-82zM51 705v163h82v-163h-82z" />
<glyph horiz-adv-x="346" d="M-12 -252l84 430h86l-107 -430h-63zM66 705v163h81v-163h-81z" />
<glyph horiz-adv-x="612" d="M98 1534h375v-66h-301v-1654h301v-66h-373z" />
<glyph horiz-adv-x="612" d="M104 -186h302v1654h-302v66h375l-2 -1786h-373v66z" />
<glyph horiz-adv-x="202" d="M-41 1413h244l-10 -471h-230z" />
<glyph horiz-adv-x="724" d="M68 1413h243l-10 -471h-229zM391 1413h244l-10 -471h-230z" />
<glyph horiz-adv-x="1431" d="M78 426q0 180 78 270q76 88 256 142q-70 76 -86 133q-18 61 -19 155q0 133 80 213q82 82 234 82q162 0 237 -80q76 -78 76 -217q0 -145 -78 -229t-260 -143l383 -379q43 131 63 299h72q-27 -219 -80 -353l287 -280l-49 -53l-268 266q-135 -270 -455 -270 q-258 0 -364.5 112.5t-106.5 331.5zM150 428q0 -190 94 -284.5t309 -94.5q281 0 397 254l-485 481q-175 -46 -246 -122q-69 -76 -69 -234zM379 1126q0 -160 92 -252l74 -73q176 61 248 129q70 68 69 196q0 229 -241.5 229t-241.5 -229z" />
<glyph horiz-adv-x="1165" d="M233 0v70h189v696h-141v65h141v195q0 215 67.5 291t212.5 76q77 0 246 -25v-65q-178 25 -246 24q-109 0 -159 -63q-49 -61 -49 -238v-195h372v-65h-372v-696h356l168 32l14 -65l-166 -35z" />
<glyph horiz-adv-x="1212" d="M139 502v69h127q-2 23 -2 107q0 100 2 127h-127v69h131q23 262 131 388q111 125 373 124q184 0 359 -38l-7 -72q-193 41 -352 41q-225 0 -317 -107q-90 -104 -109 -336l637 -2v-67h-641q-2 -27 -2 -127q0 -84 2 -107l641 -2v-67h-639q16 -238 107 -344q92 -106 321 -107 q141 0 352 41l7 -69q-201 -41 -359 -41q-262 0 -373 124q-113 129 -131 396h-131z" />
<glyph horiz-adv-x="1703" d="M504 1407l71 29l617 -1407l-72 -29z" />
<glyph horiz-adv-x="1062" d="M55 -70h877v-69h-877v69z" />
<glyph horiz-adv-x="1257" d="M211 0v1434h522q213 0 320 -103q104 -102 104 -329.5t-96 -352.5q-94 -123 -328 -123h-448v-526h-74zM285 596h448q346 0 346 405q0 188 -86 275q-88 88 -260 88h-448v-768z" />
<glyph d="M6 684v74h688v-74h-688zM309 285v164h82v-164h-82zM309 989v164h82v-164h-82z" />
<glyph horiz-adv-x="837" d="M-100 479v70h475v475h74v-475h479v-70h-479v-479h-74v479h-475z" />
<glyph horiz-adv-x="899" d="M123 541v69h655v-69h-655z" />
<glyph d="M129 602v74l711 469v-80l-645 -422l645 -444v-84q-633 430 -711 487z" />
<glyph d="M2 702v70h1034v-70h-1034zM4 356v70h1034v-70h-1034z" />
<glyph d="M129 115v84l645 444l-645 422v80l711 -469v-74z" />
<glyph d="M94 25l568 1413l67 -29l-567 -1411z" />
<glyph horiz-adv-x="1792" d="M123 535q0 287 94 395q96 113 326 112q301 0 377 -245q88 246 372 245q193 0 291 -116.5t98 -374.5v-68h-727q0 -223 70 -329.5t242 -106.5q143 0 372 19l4 -66q-229 -18 -378 -18q-270 4 -346 219q-37 -115 -125 -166q-90 -53 -250 -53q-248 0 -334 118q-86 122 -86 435 zM199 535q0 -141 12 -226q14 -90 47 -149q37 -63 104.5 -88t180.5 -25q115 0 180 27q68 29 102.5 96.5t42.5 144.5q10 88 11 215q0 243 -80 344q-80 102 -256 103q-197 0 -270.5 -92t-73.5 -350zM954 549h652q0 231 -74 329.5t-240 98.5q-338 0 -338 -428z" />
<glyph horiz-adv-x="1837" d="M72 0l514 1434h1130v-70h-764v-590h641v-69h-641v-635h764v-70h-837v440h-566l-159 -440h-82zM338 510h541v854h-236z" />
<glyph horiz-adv-x="1341" d="M94 711q0 379 119 559q121 182 430 182q170 0 287 -57l106 227l68 -29l-113 -237q109 -84 156 -244q45 -154 45 -401q0 -393 -115 -559q-117 -170 -434 -170q-162 0 -274 47l-119 -256l-68 26l123 264q-117 78 -164 236q-47 160 -47 412zM172 711q0 -230 37 -369 q39 -143 129 -211l559 1196q-98 55 -254 55q-143 0 -237 -43q-96 -43 -146 -135q-49 -94 -67 -205q-21 -128 -21 -288zM399 94q98 -43 244 -43q150 0 242 37q90 37 141 125q51 90 70 203q18 114 18 295q0 430 -156 573z" />
<glyph horiz-adv-x="1693" d="M113 281q0 143 63.5 206.5t218.5 87.5l389 41v107q0 250 -227 250q-152 0 -385 -19l-4 68q213 20 389 20q236 0 285 -196q100 197 352 196q195 0 293 -116q96 -115 96 -375v-68h-727q0 -223 69.5 -329.5t241.5 -106.5q143 0 373 19l4 -66q-229 -18 -379 -18 q-205 4 -293 118l-77 -32q-190 -86 -422 -86q-260 0 -260 299zM188 280.5q0 -112.5 50 -174.5q47 -59 137 -59q84 0 198 25q119 27 175 45q76 27 94 35q-61 119 -62 360v37l-377 -37q-111 -8 -163 -66q-52 -53 -52 -165.5zM856 549h651q0 229 -75 330q-74 98 -238 98 q-338 0 -338 -428z" />
<glyph d="M94 498q0 545 445 544q209 0 327 -124q117 -123 117 -422q0 -281 -116.5 -397.5t-327.5 -116.5q-206 0 -326 116q-119 117 -119 400zM276 498q0 -197 66 -272.5t197 -75.5q133 0 198 73q63 72 64 275q0 219 -64 297q-66 80 -198 79q-132 0 -197 -79q-66 -82 -66 -297z " />
<glyph d="M178 786l404 238h157v-1024h-182v815l-309 -176z" />
<glyph d="M170 0v160l322 256q141 106 190 168q53 66 53 139q0 82 -55 113q-59 33 -184 32q-49 0 -117 -8q-31 -4 -84 -9l-53 -5q-59 -6 -60 -10l-12 165q233 41 383 41q377 0 377 -297q0 -123 -56 -198q-57 -80 -188 -174l-260 -205h524v-168h-780z" />
<glyph d="M190 23l23 167q225 -29 383 -28q109 0 160 35q49 34 49 110q0 135 -209 139h-262v162h260q80 4 129 35q51 33 51 102q0 125 -190 125q-164 0 -361 -28l-16 164q213 39 375 38q182 0 278 -59t96 -197q0 -154 -149 -235q-4 -2 -8 -6q188 -68 188 -254q0 -156 -106.5 -233.5 t-284.5 -77.5q-66 0 -178 10q-57 4 -164 20z" />
<glyph d="M123 184v135l299 705h192l-290 -668h356v262h182v-262h101v-172h-101v-211h-182v211h-557z" />
<glyph d="M164 35l20 168q244 -45 398 -45q209 0 209 168q0 156 -211 155q-102 0 -256 -59l-142 27l41 581h725v-188h-559l-27 -244q123 55 240 55q184 0 285 -80q102 -80 102 -239q0 -168 -104.5 -260t-296.5 -92q-57 0 -182 14q-115 12 -175 27z" />
<glyph d="M143 520q0 276 119 398q121 125 324 124q169 0 338 -30l-15 -154q-203 23 -323 23q-127 0 -193 -66q-68 -68 -67 -229q0 2 45 18q55 20 110 35q59 16 113 16q387 0 387 -333q0 -162 -119 -252t-309 -90q-201 0 -307 131q-103 126 -103 409zM326 434q6 -295 239.5 -295 t233.5 183q0 164 -221 163q-35 0 -111 -14q-68 -12 -102 -25z" />
<glyph d="M158 864v160h719v-207l-426 -835l-158 43l409 796v43h-544z" />
<glyph d="M115 270q0 109 45 166.5t133 100.5q-158 74 -158 229q0 276 395 276q399 0 400 -276q0 -162 -166 -229q90 -41 139 -97q47 -53 47 -164q0 -297 -420 -296q-188 0 -303 71q-112 69 -112 219zM297 285q0 -145 233 -146q117 0 177 33q61 33 61 119q0 74 -41 108 q-39 33 -123 58h-153q-78 -25 -117 -64q-37 -36 -37 -108zM317 752q0 -63 31 -97q33 -37 103 -57h153q76 23 109 55q35 35 35 101q0 129 -218 129q-213 0 -213 -131z" />
<glyph d="M125 700q0 160 108 252q106 92 287 92q414 0 414 -530q0 -532 -438 -532q-68 0 -160 10q-86 10 -127 18l-43 10l16 154q168 -29 314 -29q252 0 252 297q-117 -57 -254 -57q-369 0 -369 315zM307 702q0 -76 51 -118q49 -41 150 -41q63 4 113 16q70 18 90 29l30 12 q-6 283 -227 283q-207 -1 -207 -181z" />
<glyph d="M496 -121v1555h71v-1555h-71z" />
<glyph horiz-adv-x="892" d="M25 506q0 399 356 434v270h72v-266l237 -22l-4 -72q-141 16 -233 20v-712l237 16l4 -72q-162 -18 -241 -18v-260h-72v260q-188 10 -272 100.5t-84 321.5zM106 506q0 -195 60 -266q58 -71 215 -80v706q-139 -16 -207 -100q-68 -86 -68 -260z" />
<glyph d="M125 696v70h506l147 334l72 -29l-135 -305h280v-70h-311l-135 -309h448v-70h-479l-147 -337l-72 28l135 309h-307v70h338l135 309h-475z" />
<glyph horiz-adv-x="1103" d="M51 1352h84l420 -633l414 633h86l-391 -604h344v-70h-390l-26 -41v-195h418v-69h-418v-373h-74v373h-420v69h420v195l-26 41h-396v70h350z" />
<glyph d="M184 -512v1536h72v-528q0 -270 49 -359q49 -90 215 -90q174 0 332 100l4 3v874h72v-1024h-72v82l-17.5 -9t-31.5 -18q-27 -16 -121 -45q-92 -29 -166 -28q-194 0 -264 104v-598h-72z" />
<glyph d="M143 -496l4 68q126 -6 185 -6q94 0 141 69.5t47 229.5v856h-141v65h141v228q0 365 260 364l191 -6l-4 -65q-168 4 -187 4q-188 0 -188 -299v-226h332v-65h-332v-856q0 -201 -64 -283q-66 -84 -196 -84z" />
<glyph horiz-adv-x="346" d="M-12 -252l86 430h82l-105 -430h-63z" />
<glyph horiz-adv-x="505" d="M201 0v164h82v-164h-82z" />
<glyph horiz-adv-x="346" d="M8 1079l82 410h78l-98 -410h-62z" />
<glyph horiz-adv-x="1703" d="M240 1073q0 160 110 260q109 100 271 101h712v-68h-198v-1366h-74v1366h-352v-1366h-74v717h-14q-160 0 -270.5 98t-110.5 258z" />
<glyph horiz-adv-x="581" d="M-2 -197q172 10 231 78q61 70 62 219q0 6 -8 125q-6 90 -7 119q0 135 46 195q47 63 159 100q-115 37 -160 100.5t-45 190.5l15 237q0 147 -61.5 217t-231.5 80l4 66q197 -10 277 -92q84 -88 83 -271q0 -14 -8 -137q-6 -92 -6 -115q0 -100 47 -153t166 -88v-66 q-117 -28 -166 -86q-47 -55 -47 -160q0 -27 6 -124q8 -131 8 -138q0 -182 -83 -270q-80 -82 -277 -92z" />
<glyph horiz-adv-x="346" d="M-45 1079l98 410h62l-82 -410h-78z" />
<glyph horiz-adv-x="0" d="M178 344q0 51 10 102q8 41 23 74q12 27 41 60q37 41 43 47q8 8 53 43l53 43l-41 32l-41 33l-32 29q-25 20 -31 35l-20 35q-18 29 -20.5 45t-8.5 51q-6 27 -6 63q0 340 481 340q489 0 489 -342q0 -29 -4 -69q-4 -37 -16 -60q-12 -20 -21 -43q-4 -10 -34 -41l-22 -22 l-11 -13q-18 -18 -45 -38q-41 -33 -47 -35l61 -47q57 -43 66 -54l45 -57q31 -41 39 -82q10 -51 10 -106q0 -213 -133 -304q-131 -88 -377 -88q-504 0 -504 369zM481 418q0 -152 201 -152q207 0 207 152q0 104 -113 155h-180q-66 -31 -90.5 -67.5t-24.5 -87.5zM504 963 q0 -6 1 -14.5t1 -10.5q0 -12 6 -20q2 -4 4 -9.5t2 -7.5l6 -6q6 -4 8 -6q12 -12 16.5 -14.5t22.5 -14.5l25 -16h180q12 8 23 14q6 4 11 9t7 5q2 2 8 6.5t9 6.5q12 8 14 12t8 10t6 15q0 6 4 18q2 6 2 23q0 68 -39 94q-41 29 -143 28q-104 0 -143 -30.5t-39 -91.5z" />
<glyph horiz-adv-x="731" d="M43 774v248h121v266l274 21v-287h252v-248h-252v-387q0 -72 2 -88q2 -23 23 -43q18 -18 61 -18l156 4l12 -236q-138 -31 -209 -31q-184 0 -252 82q-68 83 -67 308v409h-121z" />
<glyph horiz-adv-x="899" d="M123 461v229h655v-229h-655z" />
<glyph horiz-adv-x="505" d="M92 0v291h270v-291h-270z" />
<glyph d="M2 217v270h1036v-270h-1036zM2 641v270h1034v-270h-1034z" />
<glyph horiz-adv-x="1062" d="M55 31h877v-271h-877v271z" />
<glyph horiz-adv-x="692" d="M49 545v188q213 53 213 185q0 27 -6 124q-8 131 -8 138q0 184 90 268q86 80 311 90v-229q-96 -10 -119 -37q-27 -33 -26 -113q0 -8 8 -115q6 -80 6 -108q0 -135 -45 -194.5t-160 -100.5q117 -40 160 -98q45 -61 45 -193q0 -31 -6 -106q-8 -102 -8 -111q0 -84 26 -117 q27 -31 119 -41v-229q-223 8 -311 94q-90 86 -90 273q0 14 8 137q6 92 6 115q0 121 -213 180z" />
<glyph horiz-adv-x="581" d="M-219 -33q96 10 119 37q27 33 26 113q0 8 -8 114q-6 80 -6 109q0 135 45 194.5t160 100.5q-117 40 -160 98q-45 61 -45 193q0 29 6 106q8 102 8 111q0 84 -26 117q-27 31 -119 40v230q223 -8 311 -94q90 -86 90 -273q0 -14 -8 -137q-6 -92 -6 -115q0 -121 213 -180v-188 q-213 -53 -213 -185q0 -27 6 -125q8 -131 8 -137q0 -184 -90 -268q-86 -80 -311 -90v229z" />
<glyph horiz-adv-x="837" d="M-100 389v250h387v385h250v-385h391v-250h-391v-389h-250v389h-387z" />
<glyph horiz-adv-x="540" d="M25 115q0 187 61 264q61 76 188 76t189 -78q63 -80 63 -264q0 -182 -63 -263q-61 -76 -188.5 -75.5t-188.5 76.5t-61 264zM190 113q0 -117 18.5 -156t65.5 -39q43 0 66 41q20 39 20 156q0 109 -20 155q-18 41 -65.5 41t-66 -42.5t-18.5 -155.5z" />
<glyph horiz-adv-x="540" d="M51 287l211 147h148v-639h-160v463l-125 -84z" />
<glyph horiz-adv-x="540" d="M41 -66l170 158q100 88 100 150q0 59 -92 59l-168 -16l-6 149q125 20 221 21q115 0 162 -45q49 -45 49 -148q0 -66 -28 -117q-28 -49 -93 -104l-108 -100h235v-146h-442v139z" />
<glyph horiz-adv-x="540" d="M49 -207l8 141q127 -16 201 -16q88 0 88 67.5t-82 67.5h-133v133h131q25 0 47 19q20 18 21 49q0 57 -82 57l-182 -14l-9 137q121 20 213 21q227 0 228 -174q0 -111 -76 -150q49 -16 69.5 -49t20.5 -107q0 -201 -227 -200q-101 0 -236 18z" />
<glyph horiz-adv-x="540" d="M27 18l120 416h177l-136 -405h121l17 182h141v-182h45v-144h-45v-90h-158v90h-282v133z" />
<glyph horiz-adv-x="540" d="M53 -195l13 134q109 -20 192 -21q82 0 82 78q0 72 -64 72q-29 0 -43 -5q-25 -6 -34 -12l-13 -6l-120 14l20 375h397v-139h-266l-10 -115q51 27 106 27q195 0 195 -203q0 -115 -59.5 -170t-169.5 -55q-89 -1 -226 26z" />
<glyph horiz-adv-x="540" d="M33 100q0 180 63 269q61 86 203 86q33 0 82 -6.5t80 -12.5l31 -4l-9 -133q-106 14 -180 14q-104 0 -104 -116l16 4q6 0 20.5 4t22.5 6q29 6 47 6q211 0 211 -211q0 -106 -65 -168q-68 -63 -168 -63q-250 -1 -250 325zM197 55q4 -139 79.5 -139t75.5 88q0 41 -16 62 q-15 18 -55 18q-18 0 -41 -6l-31 -15q-12 -6 -12 -8z" />
<glyph horiz-adv-x="540" d="M51 276v158h436v-174l-206 -483l-179 28l201 437v34h-252z" />
<glyph horiz-adv-x="540" d="M23 -25q0 121 88 154q-78 31 -78 150q0 176 239.5 176t239.5 -179q0 -63 -22.5 -100t-55.5 -47q88 -27 88 -149q0 -113 -63 -158q-66 -47 -186.5 -47t-186.5 47q-63 44 -63 153zM186 -20q0 -74 86 -74q84 0 84 76q0 57 -61 81h-47q-62 -26 -62 -83zM193 260q0 -51 55 -78 h47q55 23 55 78q0 63 -78 64q-79 -1 -79 -64z" />
<glyph horiz-adv-x="540" d="M31 227q0 104 65 166q63 61 168 62q127 0 188.5 -84t61.5 -256q0 -180 -61.5 -260t-198.5 -80q-88 0 -199 24l11 133q88 -14 170 -14q109 0 110 113l-14 -4q-2 0 -17.5 -3.5t-25.5 -5.5q-27 -6 -51 -6q-101 0 -154 56q-53 57 -53 159zM193 227q0 -37 20 -63 q16 -23 51 -23t88 25q-4 147 -84 147q-75 0 -75 -86z" />
<glyph horiz-adv-x="1521" d="M154 0v270h211v-270h-211zM676 0v270h209v-270h-209zM1196 0v270h211v-270h-211z" />
<glyph horiz-adv-x="788" d="M14 -63q0 100 39 180q37 78 97 133q49 47 110 94q51 39 96 92q39 45 39 94v78h205v-84q0 -78 -39 -137q-39 -61 -94 -106l-109 -91q-53 -45 -94 -104q-39 -57 -39 -127q0 -109 51.5 -152t186.5 -43q106 0 313 46l25 -189q-231 -57 -346 -57q-225 0 -334 86 q-107 86 -107 287zM393 752v270h209v-270h-209z" />
<glyph horiz-adv-x="788" d="M23 350q0 100 38 180q39 82 95 134q43 41 114 96q49 39 95 90q39 45 38 94v78h205v-84q0 -78 -39 -137q-39 -61 -94 -107l-110 -90q-49 -41 -93 -104q-39 -57 -39 -127q0 -106 52 -150q55 -45 186 -45q106 0 313 45l25 -188q-231 -57 -346 -58q-231 0 -334 84 q-106 88 -106 289zM401 1165v271h209v-271h-209z" />
<glyph horiz-adv-x="788" d="M23 350q0 100 38 180q39 82 95 134q43 41 114 96q49 39 95 90q39 45 38 94v78h205v-84q0 -78 -39 -137q-39 -61 -94 -107l-110 -90q-49 -41 -93 -104q-39 -57 -39 -127q0 -106 52 -150q55 -45 186 -45q106 0 313 45l25 -188q-231 -57 -346 -58q-231 0 -334 84 q-106 88 -106 289zM401 1165v271h209v-271h-209z" />
<glyph horiz-adv-x="1024" d="M0 530v177h1024v-177h-1024z" />
<glyph horiz-adv-x="2048" d="M0 530v177h2048v-177h-2048z" />
<glyph horiz-adv-x="505" d="M135 549v270h211v-270h-211z" />
<glyph d="M451 -248l6 940h196l6 -940h-208zM451 915v271h208v-271h-208z" />
<glyph horiz-adv-x="530" d="M51 678q0 172 51 412q49 230 99 368l49 139h209q-23 -59 -53 -159q-31 -98 -86.5 -344t-55.5 -416q0 -341 178 -830q16 -43 17 -43h-209l-55 140q-31 82 -89 319q-55 232 -55 414z" />
<glyph horiz-adv-x="530" d="M41 -184q35 96 55 159q31 98 86 344q53 238 54 416q0 341 -179 830l-16 43h209l55 -140q31 -82 88 -319q55 -231 56 -414q0 -181 -50 -411q-47 -215 -100 -369l-49 -139h-209z" />
<glyph horiz-adv-x="612" d="M74 1595h461v-188h-263v-1409h263v-188h-459z" />
<glyph horiz-adv-x="612" d="M70 -2h262v1409h-262v188h460l-2 -1785h-458v188z" />
<glyph horiz-adv-x="647" d="M29 618v164q117 29 157 76q43 49 43 133q0 8 -1 23.5l-3 45.5t-4 54q-6 94 -6 137q0 186 96 271q92 80 314 90l2 -189q-119 -8 -162 -49q-43 -40 -43 -135q0 -34 6 -129q2 -25 4 -54.5t3 -46t1 -24.5q0 -127 -45 -186.5t-160 -96.5q111 -35 158 -102q47 -66 47 -188 q0 -2 -8 -117q-6 -86 -6 -123q0 -94 43 -137t162 -51l-2 -189q-221 10 -314 90q-96 84 -96 267q0 43 6 135l4 52.5l3 41.5t1 20q0 82 -45 134q-46 52 -155 83z" />
<glyph horiz-adv-x="647" d="M14 -25q121 10 162 48q43 39 43 137q0 37 -6 131q-2 25 -4 54.5l-3 45t-1 23.5q0 125 45 184q46 61 160 98q-111 35 -158 103q-47 66 -47 188q0 4 8 119q6 86 6 121q0 96 -43 139q-39 39 -162 49l2 189q221 -10 314 -91q96 -84 96 -266q0 -43 -6 -135l-4 -52.5l-3 -41.5 t-1 -21q0 -84 45 -135q41 -47 155 -82v-164q-111 -27 -157 -77q-43 -47 -43 -131q0 -8 1 -23.5l3 -45.5t4 -54q6 -96 6 -138q0 -188 -94 -270q-92 -80 -316 -90z" />
<glyph horiz-adv-x="503" d="M16 1747l66 182l473 -192l-61 -160z" />
<glyph horiz-adv-x="503" d="M27 1747l65 182l473 -192l-61 -160z" />
<glyph horiz-adv-x="503" d="M10 1751l473 191l68 -181l-479 -172z" />
<glyph horiz-adv-x="503" d="M14 1751l473 191l68 -181l-479 -172z" />
<glyph horiz-adv-x="960" d="M90 1628l270 285h177l270 -285h-221l-135 131l-136 -131h-225z" />
<glyph horiz-adv-x="503" d="M-66 1628l271 285h176l270 -285h-221l-135 131l-135 -131h-226z" />
<glyph horiz-adv-x="503" d="M-78 1909h223l138 -135l133 135h223l-270 -285h-174z" />
<glyph horiz-adv-x="503" d="M-82 1909h223l138 -135l133 135h223l-270 -285h-175z" />
<glyph horiz-adv-x="503" d="M-78 1794q8 10 33 35q23 23 76 55q57 35 96 35q63 0 186 -51q129 -53 150 -53q45 0 160 90l45 -150q-8 -10 -33 -35q-22 -22 -74 -55q-51 -33 -94 -33q-51 0 -180 53.5t-158 53.5q-51 0 -164 -94z" />
<glyph horiz-adv-x="503" d="M-78 1794q8 10 33 35q23 23 76 55q57 35 96 35q63 0 186 -51q129 -53 150 -53q45 0 160 90l45 -150q-8 -10 -33 -35q-22 -22 -74 -55q-51 -33 -94 -33q-51 0 -180 53.5t-158 53.5q-51 0 -164 -94z" />
<glyph horiz-adv-x="503" d="M-43 1663v213h184v-213h-184zM389 1663v213h186v-213h-186z" />
<glyph horiz-adv-x="503" d="M-43 1663v213h184v-213h-184zM389 1663v213h186v-213h-186z" />
<glyph horiz-adv-x="503" d="M-47 1655v168h661v-168h-661z" />
<glyph horiz-adv-x="503" d="M-47 1655v168h661v-168h-661z" />
<glyph horiz-adv-x="503" d="M-49 1901h199q2 -53 43 -89q39 -33 100 -32q59 0 98 32q43 35 45 89h199q-8 -129 -100 -207q-90 -78 -242 -78q-154 0 -244 78q-88 76 -98 207z" />
<glyph horiz-adv-x="503" d="M-49 1901h199q2 -53 43 -89q39 -33 100 -32q59 0 98 32q43 35 45 89h199q-8 -129 -100 -207q-90 -78 -242 -78q-154 0 -244 78q-88 76 -98 207z" />
<glyph horiz-adv-x="503" d="M18 1559q0 109 74 170t188.5 61t188.5 -61q76 -63 76 -170q0 -104 -76 -168q-74 -61 -188.5 -61.5t-188.5 61.5t-74 168zM172 1559q0 -90 109 -91q111 0 110 91q0 45 -29 67q-31 25 -81 25q-52 0 -80 -25q-29 -24 -29 -67z" />
<glyph horiz-adv-x="503" d="M4 1559q0 109 74 170t188.5 61t188.5 -61q76 -63 75 -170q0 -104 -75 -168q-74 -61 -188.5 -61.5t-188.5 61.5t-74 168zM158 1559q0 -90 108 -91q111 0 111 91q0 43 -31 67.5t-80 24.5q-52 0 -80 -25q-28 -24 -28 -67z" />
<glyph horiz-adv-x="503" d="M-84 1614l240 313l168 -80l-254 -305zM342 1612l238 313l168 -78l-254 -307z" />
<glyph horiz-adv-x="503" d="M-84 1614l240 313l168 -80l-254 -305zM342 1612l238 313l168 -78l-254 -307z" />
<glyph horiz-adv-x="503" d="M156 1595v211h194v-211h-194z" />
<glyph horiz-adv-x="503" d="M156 1595v211h194v-211h-194z" />
<glyph horiz-adv-x="540" d="M25 1094q0 187 61 264q61 76 188 76t189 -78q63 -80 63 -264q0 -182 -63 -263q-61 -76 -188.5 -75.5t-188.5 76.5t-61 264zM190 1092q0 -114 19 -154q18 -41 65 -41q43 0 66 41q20 39 20 156q0 109 -20 155q-18 41 -65.5 41t-66 -42.5t-18.5 -155.5z" />
<glyph horiz-adv-x="540" d="M39 1266l211 147h147v-639h-159v463l-125 -84z" />
<glyph horiz-adv-x="540" d="M41 774v139l170 158q100 88 100 150q0 59 -92 59l-168 -16l-6 149q125 20 221 21q115 0 162 -45q49 -46 49 -148q0 -66 -28 -117q-28 -49 -93 -104l-108 -100h235v-146h-442z" />
<glyph horiz-adv-x="540" d="M49 772l8 141q127 -16 201 -16q88 0 88 67.5t-82 67.5h-133v133h131q25 0 47 19q20 18 21 49q0 57 -82 57l-182 -14l-9 137q121 20 213 21q227 0 228 -174q0 -111 -76 -150q49 -16 69.5 -49t20.5 -107q0 -201 -227 -200q-101 0 -236 18z" />
<glyph horiz-adv-x="540" d="M27 864v133l120 416h177l-136 -405h121l17 182h141v-182h45v-144h-45v-90h-158v90h-282z" />
<glyph horiz-adv-x="540" d="M53 784l13 134q109 -20 192 -21q82 0 82 78q0 72 -64 72q-29 0 -43 -5q-25 -6 -34 -12l-13 -6l-120 14l20 375h397v-139h-266l-10 -115q51 27 106 27q195 0 195 -203q0 -115 -59.5 -170t-169.5 -55q-89 -1 -226 26z" />
<glyph horiz-adv-x="540" d="M33 1079q0 180 63 269q61 86 203 86q33 0 82 -6.5t80 -12.5l31 -4l-9 -133q-106 14 -180 14q-104 0 -104 -116l16 4q6 0 20.5 4t22.5 6q29 6 47 6q211 0 211 -211q0 -106 -65 -168q-68 -63 -168 -63q-250 -1 -250 325zM197 1034q4 -139 79.5 -139t75.5 88q0 41 -16 61 q-15 18 -55 19q-18 0 -41 -6l-31 -15q-12 -6 -12 -8z" />
<glyph horiz-adv-x="540" d="M51 1255v158h436v-174l-206 -483l-179 28l201 437v34h-252z" />
<glyph horiz-adv-x="540" d="M23 954q0 121 88 154q-78 31 -78 149q0 176 239.5 176.5t239.5 -178.5q0 -63 -22.5 -100t-55.5 -47q88 -27 88 -150q0 -115 -63.5 -159.5t-186.5 -44.5q-121 0 -186 47q-63 44 -63 153zM186 958q0 -74 86 -73q84 0 84 76q0 57 -61 81h-47q-62 -27 -62 -84zM193 1239 q0 -51 55 -78h47q55 23 55 78q0 63 -78 64q-79 -1 -79 -64z" />
<glyph horiz-adv-x="540" d="M31 1206q0 104 65 166q63 61 168 62q127 0 188.5 -84t61.5 -256q0 -180 -61.5 -260t-198.5 -80q-88 0 -199 24l11 133q88 -14 170 -14q109 0 110 113l-14 -4q-2 0 -17.5 -3.5t-25.5 -5.5q-27 -6 -51 -6q-101 0 -154 56q-53 57 -53 159zM193 1206q0 -37 20 -63 q16 -23 51 -23t88 25q-4 147 -84 147q-75 0 -75 -86z" />
</font>
</defs>
</svg>
