<?xml version="1.0" standalone="no"?>
<!DOCTYPE svg PUBLIC "-//W3C//DTD SVG 1.1//EN" "http://www.w3.org/Graphics/SVG/1.1/DTD/svg11.dtd" >
<svg xmlns="http://www.w3.org/2000/svg">
<metadata>
This is a custom SVG webfont generated by Font Squirrel.
Copyright   : Generated in 2010 by FontLab Studio Copyright info pending
Designer    : Campivisivi
Foundry     : Campivisivi
</metadata>
<defs>
<font id="webfontgOjPrCcJ" horiz-adv-x="1083" >
<font-face units-per-em="2048" ascent="1536" descent="-512" />
<missing-glyph horiz-adv-x="479" />
<glyph unicode=" "  horiz-adv-x="479" />
<glyph unicode="&#x09;" horiz-adv-x="479" />
<glyph unicode="&#xa0;" horiz-adv-x="479" />
<glyph unicode="!" d="M485 0v207h136v-207h-136zM487 1432h131l-4 -971h-122z" />
<glyph unicode="&#x22;" horiz-adv-x="610" d="M94 995v435h119l-2 -435h-117zM395 1430h121l-2 -435h-117z" />
<glyph unicode="#" d="M20 377v106h234v402h-234v106h234v375h115v-375h342v375h114v-375h234v-106h-234v-402h234v-106h-234v-377h-114v377h-342v-377h-115v377h-234zM369 483h342v402h-342v-402z" />
<glyph unicode="$" d="M113 1036q0 360 442 361q37 0 47 -2l31 227h92l-31 -233l256 -29l-10 -113q-66 8 -260 29l-68 -520q199 -43 285 -117q84 -72 84 -242q0 -219 -109 -315q-111 -98 -323 -98h-35l-31 -236q-92 6 -92 14l29 228q-115 8 -291 33l12 110q127 -16 293 -29l72 551 q-217 43 -303 119q-90 78 -90 262zM238 1040q0 -131 61 -182q57 -49 223 -84l66 508h-33q-317 0 -317 -242zM528 100h19q157 0 233 68t76 225q0 113 -57.5 162t-200.5 82z" />
<glyph unicode="%" d="M45 1159q0 143 55.5 211t171.5 68q113 0 170 -70q55 -68 56 -211q0 -287 -226 -287q-227 0 -227 289zM150 1159q0 -102 26 -149q29 -49 96.5 -49t96.5 47q27 45 26 149q0 100 -26.5 145.5t-96 45.5t-96 -45.5t-26.5 -143.5zM297 39l438 1393l88 -35l-436 -1393zM618 289 q0 143 55.5 210.5t172.5 67.5q227 0 227 -280q0 -287 -227.5 -287t-227.5 289zM723 289q0 -102 27 -150q29 -49 96 -49q70 0 96.5 47t26.5 150q0 100 -27 145t-96.5 45t-96 -45t-26.5 -143z" />
<glyph unicode="&#x26;" horiz-adv-x="1431" d="M104 420q0 170 78 264q76 90 244 150q-68 80 -84 137q-20 68 -20 155q0 137 90 221.5t250 84.5q174 0 256 -82q84 -84 83 -232q0 -144 -73 -227q-76 -86 -248 -158l328 -325q41 141 59 284l121 -2q-27 -219 -86 -364l272 -265l-78 -86l-254 246q-84 -133 -192.5 -190.5 t-267.5 -57.5q-478 1 -478 447zM229 422q0 -332 357 -332q123 0 213 49q86 47 151 164l-442 445q-154 -47 -215 -117q-64 -72 -64 -209zM444 1116q0 -147 93 -239l63 -64q156 61 217 123q59 59 60 176q0 205 -215 205q-218 0 -218 -201z" />
<glyph unicode="'" horiz-adv-x="202" d="M35 1425h129l-10 -450h-115z" />
<glyph unicode="(" horiz-adv-x="530" d="M88 616q0 181 49 412q45 207 101 369l49 139h129q-27 -72 -54 -158q-29 -92 -86 -346q-55 -246 -55 -416q0 -341 178 -829l17 -43h-129l-56 139q-31 82 -88 320q-55 231 -55 413z" />
<glyph unicode=")" horiz-adv-x="530" d="M88 -256q51 139 55 152q29 90 86 333q53 227 54 408q0 170 -50 395q-49 221 -98 365l-47 139h129l55 -147q31 -84 88 -332q55 -240 56 -420q0 -172 -51 -406q-49 -224 -99 -356l-49 -131h-129z" />
<glyph unicode="*" d="M262 938l223 162l-219 162l53 73l220 -159l86 258l88 -29l-84 -262h270v-90h-274l84 -260l-86 -27l-86 262l-222 -162z" />
<glyph unicode="+" horiz-adv-x="899" d="M-68 477v115h453v452h119v-452h457v-115h-457v-457h-119v457h-453z" />
<glyph unicode="," horiz-adv-x="346" d="M70 -252l90 455h135l-109 -455h-116z" />
<glyph unicode="-" horiz-adv-x="899" d="M127 516v119h645v-119h-645z" />
<glyph unicode="." horiz-adv-x="505" d="M174 0v207h135v-207h-135z" />
<glyph unicode="/" d="M197 29l569 1417l117 -43l-572 -1417z" />
<glyph unicode="0" d="M55 651q0 211 31 353q29 135 98 221q66 80 152 114q84 33 205 33q252 0 368 -155q117 -157 117 -566q0 -372 -123 -522t-360 -149q-244 0 -367 147q-121 145 -121 524zM190 649q0 -217 43 -340q43 -125 115 -166q74 -43 195 -43q182 0 266 117q84 119 84 434 q0 240 -39 369q-41 135 -113 182q-78 51 -200 51q-184 0 -269 -129q-82 -127 -82 -475z" />
<glyph unicode="1" d="M152 1069l423 283h121v-1352h-125v1208l-360 -239z" />
<glyph unicode="2" d="M119 0v117l420 436q98 102 145 158q46 55 86 135q41 82 41 160q0 133 -78 188q-80 57 -235 57q-152 0 -355 -49l-12 117q201 53 387 53q211 0 317.5 -84t106.5 -272q0 -141 -61.5 -245.5t-210.5 -254.5l-381 -395h692v-121h-862z" />
<glyph unicode="3" d="M102 27l17 116q217 -43 420 -43q315 2 315 275q0 260 -299 270h-274v117h272q94 0 178 69q86 71 86 185q0 131 -67 182q-70 53 -228 53q-74 0 -180 -10q-90 -8 -145 -18l-54 -11l-16 113q211 47 399 47q231 0 326 -82q96 -84 96 -264q0 -57 -14 -100q-16 -47 -33 -76 q-18 -29 -49 -57q-28 -25 -49 -37q-10 -6 -21.5 -11.5t-21.5 -11.5q-22 -12 -25 -12q125 -39 187 -111q63 -74 63 -229q0 -203 -106 -301q-111 -100 -330 -100q-96 0 -207 12q-139 16 -176 22z" />
<glyph unicode="4" d="M61 266v105l400 981h137l-391 -965h532v438h127v-438h181v-121h-181v-272h-127v272h-678z" />
<glyph unicode="5" d="M106 37l17 115q238 -49 420 -50q152 0 237 91q86 89 86 251q0 285 -309 285q-70 0 -156 -22q-76 -20 -127 -48l-45 -22l-106 18l39 697h778v-121h-661l-37 -471q164 88 325 88q430 0 430 -399q0 -227 -118.5 -346t-331.5 -119q-199 0 -441 53z" />
<glyph unicode="6" d="M74 684q0 688 518 688q76 0 168 -6q86 -6 141 -12l53 -8l-12 -117q-178 25 -350 24q-186 0 -285 -129q-100 -131 -102 -370l53 20q53 20 145 43q94 23 162 23q451 0 451 -414q0 -215 -121 -330q-123 -117 -348 -116q-473 -1 -473 704zM203 639q4 -252 86 -395 q84 -145 258 -146q168 0 252 82q86 83 86 246q0 150 -86 223.5t-242 73.5q-168 -6 -354 -84z" />
<glyph unicode="7" d="M115 1231v121h833v-181l-532 -1194l-119 39l520 1168v47h-702z" />
<glyph unicode="8" d="M45 344q0 147 61 225q57 72 189 140q-117 52 -172 122.5t-55 196.5q0 172 127 258q125 86 354 86q225 0 356 -88t131 -258q0 -127 -57 -197q-61 -74 -188 -120q131 -49 198.5 -125t67.5 -217q0 -387 -508 -387q-225 0 -364.5 85.5t-139.5 278.5zM182 362q0 -262 367 -262 q375 0 375 275q0 125 -68 180t-203 92h-225q-123 -34 -184 -98q-62 -66 -62 -187zM203 1016q0 -104 53 -160q57 -59 172 -96h225q121 33 187 94q61 58 61 160q0 240 -352 239q-169 0 -258 -55q-88 -55 -88 -182z" />
<glyph unicode="9" d="M80 924q0 209 125 327q127 121 336 121q481 0 481 -704q0 -373 -133 -530.5t-393 -157.5q-166 0 -363 28l12 115q178 -25 351 -25q391 0 395 496q-215 -80 -375 -80q-436 0 -436 410zM211 923.5q0 -151.5 78 -221.5q82 -72 237 -71q70 0 158 20q109 25 152 39l57 21 q-8 543 -352 542q-152 0 -242 -90q-88 -88 -88 -239.5z" />
<glyph unicode=":" horiz-adv-x="331" d="M135 0v207h135v-207h-135zM135 676v209h135v-209h-135z" />
<glyph unicode=";" horiz-adv-x="382" d="M59 -248l95 461h137l-121 -461h-111zM143 676v209h136v-209h-136z" />
<glyph unicode="&#x3c;" d="M129 573v127l711 445v-131l-594 -373l594 -391v-135q-39 20 -178 112l-322 209z" />
<glyph unicode="=" d="M74 696v115h925v-115h-925zM76 326v114h925v-114h-925z" />
<glyph unicode="&#x3e;" d="M129 115v135l594 391l-594 373v131l711 -445v-127q-14 -8 -31.5 -19l-43.5 -28.5l-103.5 -68.5l-182.5 -119q-311 -205 -350 -223z" />
<glyph unicode="?" horiz-adv-x="788" d="M18 1399q231 55 342 55q213 0 317.5 -80t104.5 -264q0 -94 -41 -176q-41 -84 -98 -137q-74 -72 -115 -105q-63 -53 -100 -104q-41 -57 -41 -111v-78h-129v84q0 70 41 135q40 65 98 117l115 103q61 55 100 120q41 70 41 144q0 125 -71 178q-70 51 -226 51q-43 0 -123 -12 q-70 -10 -141 -29l-59 -12zM256 2v207h135v-207h-135z" />
<glyph unicode="@" horiz-adv-x="2015" d="M113 535q0 500 229 720q231 221 690 222q461 0 666 -207q207 -211 207 -645v-35q0 -176 -17 -277q-18 -117 -45 -178q-31 -70 -74 -100q-53 -37 -96 -45q-51 -10 -119 -10q-94 0 -149 22q-51 20 -80 96q-221 -117 -371 -116q-59 0 -98 8q-45 10 -94 39q-51 31 -84 84 q-37 61 -57 151q-23 102 -23 234q0 274 92 409t328 135q33 0 108 -14q70 -12 105 -27l39 -12v35h121v-410q0 -264 14 -362q16 -106 45 -133t104 -27q59 0 95 12q33 12 67 60q37 51 49 151q12 104 13 275v37q0 391 -172 563t-574 172q-412 0 -602 -191q-193 -193 -192 -636 q0 -461 186 -648q184 -184 608 -184l293 21l6 -117q-190 -20 -299 -21q-242 0 -401 45q-170 47 -285 152q-117 104 -176 291q-57 180 -57 461zM721 492q0 -127 20 -207q23 -86 60 -121q49 -45 73 -53q37 -12 84 -13q143 0 332 101q-20 102 -20 385v297q-137 47 -236 47 q-182 0 -247.5 -102.5t-65.5 -333.5z" />
<glyph unicode="A" horiz-adv-x="1234" d="M63 0l410 1427h297l404 -1425h-127l-119 387h-623l-115 -389h-127zM336 510h563l-227 801h-107z" />
<glyph unicode="B" horiz-adv-x="1269" d="M195 0v1427h503q418 0 418 -350q0 -262 -186 -342q236 -76 235 -334q0 -217 -112 -309q-115 -92 -324 -92h-534zM319 117h406q150 0 231 65q80 63 80 224q0 262 -323 262h-394v-551zM319 782h394q143 0 208.5 72t65.5 211q0 131 -69.5 188.5t-223.5 57.5h-375v-529z" />
<glyph unicode="C" horiz-adv-x="1095" d="M109 709q0 184 22.5 315t75.5 229q55 102 158 148q106 47 260 47q84 0 182 -12q106 -14 149 -21l56 -10l-8 -117q-213 39 -369 39q-121 0 -205 -39q-82 -37 -121 -123q-40 -86 -55 -190q-14 -98 -14 -266q0 -135 8 -215q10 -90 33 -166q25 -78 67 -125q41 -45 117 -74 q68 -27 172 -27q70 0 151 9q92 9 154 18l62 10l6 -114q-219 -45 -385 -45q-154 0 -260 47q-100 45 -158 145q-53 96 -76 225q-22 132 -22 312z" />
<glyph unicode="D" horiz-adv-x="1320" d="M195 0v1427h514q508 0 508 -692q0 -735 -508 -735h-514zM319 119h390q109 0 184.5 51t116.5 145q37 88 57 195q18 100 18 225q0 573 -376 574h-390v-1190z" />
<glyph unicode="E" horiz-adv-x="1159" d="M195 0v1427h852v-118h-728v-523h605v-118h-605v-549h728v-119h-852z" />
<glyph unicode="F" horiz-adv-x="1138" d="M195 0v1427h854v-118h-730v-588h607v-119h-607v-602h-124z" />
<glyph unicode="G" horiz-adv-x="1249" d="M113 711q0 373 118.5 555t423.5 182q211 0 459 -53l-6 -115q-260 47 -442 47q-248 0 -334 -147q-88 -152 -88 -469q0 -313 88 -465q84 -145 332 -146q66 0 137 9q113 12 133 16l55 8v471h-262v117h387v-690q-287 -51 -457 -51q-303 0 -423.5 182t-120.5 549z" />
<glyph unicode="H" horiz-adv-x="1409" d="M195 0v1427h124v-649h773v649h125v-1427h-125v659h-773v-659h-124z" />
<glyph unicode="I" horiz-adv-x="487" d="M182 0v1427h125v-1427h-125z" />
<glyph unicode="J" horiz-adv-x="624" d="M70 -31q68 0 88 2q41 4 63 11q34 9 49 24q16 16 29 47q10 27 14 74q4 57 4 113v1190h127v-605q0 -143 1 -344.5t1 -261.5q0 -80 -10 -147q-10 -63 -30.5 -102.5t-47.5 -65.5q-18 -18 -75 -33q-43 -10 -95 -14q-57 -4 -118 -4v116z" />
<glyph unicode="K" horiz-adv-x="1218" d="M195 0v1427h124v-667l244 4l395 663h148l-430 -714l457 -713h-152l-414 643l-248 -4v-639h-124z" />
<glyph unicode="L" horiz-adv-x="1060" d="M195 0v1427h124v-1306h652v-121h-776z" />
<glyph unicode="M" horiz-adv-x="1738" d="M195 0v1427h229l446 -1243l449 1243h227v-1427h-125v1286h-28l-451 -1239h-147l-447 1239h-29v-1286h-124z" />
<glyph unicode="N" horiz-adv-x="1411" d="M195 0v1427h241l608 -1286h50v1286h127v-1427h-240l-614 1286h-48v-1286h-124z" />
<glyph unicode="O" horiz-adv-x="1335" d="M113 707q0 373 120 559q119 182 435 182q313 0 436 -182q121 -178 121 -559q0 -385 -119 -555q-119 -172 -438 -172q-313 0 -434 176t-121 551zM244 707q0 -160 18 -265q20 -115 62 -186q47 -82 129 -119q83 -37 215 -37q254 0 340 138q86 139 86 469q0 317 -90.5 468.5 t-335.5 151.5q-248 0 -336 -149t-88 -471z" />
<glyph unicode="P" horiz-adv-x="1245" d="M195 0v1427h518q225 0 333.5 -108.5t108.5 -337.5q0 -485 -442 -485h-394v-496h-124zM319 616h394q313 0 313 365q0 170 -74 250q-72 78 -239 78h-394v-693z" />
<glyph unicode="Q" horiz-adv-x="1335" d="M113 707q0 373 120 559q119 182 435 182q313 0 436 -182q121 -178 121 -559q0 -262 -54 -426q-51 -158 -186 -234l174 -283l-119 -57l-180 295q-90 -23 -192 -22q-313 0 -434 176t-121 551zM244 707q0 -160 18 -265q20 -115 62 -186q47 -82 129 -119q83 -37 215 -37 q254 0 340 138q86 139 86 469q0 317 -90.5 468.5t-335.5 151.5q-248 0 -336 -149t-88 -471z" />
<glyph unicode="R" horiz-adv-x="1280" d="M195 0v1427h520q225 0 333.5 -102t108.5 -321q0 -344 -274 -416l293 -588h-142l-280 559h-435v-559h-124zM319 678h396q170 0 241 84q70 82 70 242q0 158 -76 231q-78 74 -235 74h-396v-631z" />
<glyph unicode="S" horiz-adv-x="1091" d="M96 1077q0 375 459 375q164 0 412 -39l-11 -117q-291 35 -401 35q-330 0 -330 -250q0 -147 74 -198.5t287 -91.5q229 -47 317 -121q94 -78 94 -256q0 -225 -114.5 -327.5t-333.5 -102.5q-164 0 -436 39l12 116q285 -35 422 -35q164 0 241 70q80 71 80 234q0 127 -71 180 q-71 52 -258 86q-92 16 -193 47q-70 20 -133 65q-61 43 -90 115q-27 67 -27 176z" />
<glyph unicode="T" horiz-adv-x="1011" d="M-6 1309v118h1024v-118h-447v-1309h-125v1309h-452z" />
<glyph unicode="U" horiz-adv-x="1310" d="M168 418v1009h127v-1009q0 -315 354 -316q182 0 275 72q94 74 94 244v1009h125v-1009q0 -233 -123 -334q-125 -102 -371 -102q-238 0 -360 104q-121 103 -121 332z" />
<glyph unicode="V" horiz-adv-x="1200" d="M63 1427h130l356 -1308h113l348 1308h129l-379 -1427h-309z" />
<glyph unicode="W" horiz-adv-x="1818" d="M82 1427h127l272 -1302h68l291 1288h141l299 -1288h66l266 1302h127l-299 -1427h-252l-279 1237l-268 -1237h-252z" />
<glyph unicode="X" horiz-adv-x="1187" d="M70 0l442 709l-442 718h143l383 -622l381 622h143l-436 -718l436 -709h-143l-379 616l-385 -616h-143z" />
<glyph unicode="Y" horiz-adv-x="1120" d="M43 1427h141l379 -673l373 673h141l-450 -815v-612h-127v612z" />
<glyph unicode="Z" horiz-adv-x="1165" d="M123 -2v174l774 1092v45h-774v118h921v-174l-774 -1093v-41h774v-121h-921z" />
<glyph unicode="[" horiz-adv-x="612" d="M90 -252v1786h408v-117h-285v-1552h285v-117h-408z" />
<glyph unicode="\" horiz-adv-x="1091" d="M164 1395l131 55l625 -1415l-129 -53z" />
<glyph unicode="]" horiz-adv-x="612" d="M90 -135h285v1552h-285v117h408v-1786h-408v117z" />
<glyph unicode="^" d="M115 672l354 680h129l371 -680h-135l-299 557l-287 -557h-133z" />
<glyph unicode="_" horiz-adv-x="1062" d="M55 -45h877v-115h-877v115z" />
<glyph unicode="`" horiz-adv-x="464" d="M6 1413l45 109l426 -195l-41 -96z" />
<glyph unicode="a" horiz-adv-x="1062" d="M104 289q0 143 72 213q74 72 230 86l348 35v92q0 211 -197 211q-150 0 -389 -31l-8 109q236 39 401 38q160 0 236 -79q78 -82 77 -248v-535q10 -78 134 -92l-7 -106q-164 0 -231 77q-184 -80 -393 -79q-131 0 -201 79q-72 83 -72 230zM231 291q0 -100 41 -150 q43 -53 119 -53q80 0 168 18q117 25 141 33l54 19v362l-334 -31q-189 -16 -189 -198z" />
<glyph unicode="b" horiz-adv-x="1103" d="M188 0v1479h123v-508q162 72 320 71q205 0 284.5 -116.5t79.5 -395.5q0 -307 -100 -428q-100 -123 -377 -122q-140 0 -330 20zM311 102q143 -12 205 -12q215 0 283 98q70 100 69 340q0 219 -51 310q-51 92 -194 92q-150 0 -312 -66v-762z" />
<glyph unicode="c" horiz-adv-x="892" d="M111 530q0 276 96 396q95 117 325 116q39 0 107 -6q63 -6 113 -12l47 -6l-4 -109q-164 18 -242 19q-182 0 -249.5 -86t-67.5 -312q0 -244 63 -342q61 -94 254 -94l244 19l6 -109q-184 -25 -273 -24q-246 0 -331 120q-88 123 -88 430z" />
<glyph unicode="d" horiz-adv-x="1105" d="M111 504q0 274 98 407q98 131 330 131q101 0 258 -24v416h123v-1434h-123v74q-162 -94 -328 -94q-53 0 -104.5 10t-96.5 41q-49 33 -82 88q-31 49 -53 153q-22 103 -22 232zM233 500q0 -131 21 -213q23 -88 59 -125q41 -41 78 -55.5t90 -14.5q63 0 148 23q61 16 123 45 l45 20v729q-236 23 -254 23q-174 0 -242 -104.5t-68 -327.5z" />
<glyph unicode="e" horiz-adv-x="1036" d="M111 508q0 535 421 534q201 0 304 -116q100 -115 100 -367l-4 -98h-696q0 -190 63 -279q66 -90 221 -90q96 0 160 4q18 2 74.5 5t81.5 5l59 5l4 -103q-240 -29 -391 -28q-221 2 -309 131q-88 127 -88 397zM236 563h577q0 203 -65.5 287t-215.5 84q-296 0 -296 -371z" />
<glyph unicode="f" horiz-adv-x="677" d="M61 911v113h136v104q0 215 59 293t209 78l201 -12l-2 -103q-160 4 -181 5q-94 0 -131 -54q-35 -49 -35 -209v-102h312v-113h-312v-911h-120v911h-136z" />
<glyph unicode="g" horiz-adv-x="1046" d="M102 -170q0 84 37 137q39 55 129 121q-51 33 -51 139q0 33 66 160q-166 72 -166 309q0 348 368 348q98 0 215 -26l295 6v-109h-198q70 -70 69 -219q0 -188 -92 -266q-90 -76 -295 -76q-63 0 -104 8q-41 -104 -41 -126q0 -68 41 -84q43 -16 219 -17q217 0 301 -59.5 t84 -237.5q0 -166 -113 -248q-111 -80 -336 -79q-244 0 -337 69q-91 66 -91 250zM225 -162q0 -125 62 -170q63 -47 245 -47q168 0 244 49t76 164q0 125 -55 158q-57 35 -211 35l-232 8q-74 -49 -102 -92q-27 -39 -27 -105zM240 696q0 -123 53 -180q51 -55 186 -55 q141 0 201 51q61 52 61 184q0 141 -55 190.5t-203 49.5q-125 0 -184 -53.5t-59 -186.5z" />
<glyph unicode="h" horiz-adv-x="1155" d="M188 0v1509h123v-538q178 72 332 71q207 0 275 -108q68 -106 67 -402v-532h-123v530q0 229 -45 316q-43 84 -188 84q-152 0 -318 -68v-862h-123z" />
<glyph unicode="i" horiz-adv-x="464" d="M172 0v1024h123v-1024h-123zM172 1280v154h123v-154h-123z" />
<glyph unicode="j" horiz-adv-x="493" d="M-63 -358q168 96 215 161q49 68 49 209v1012h123v-1014q0 -181 -68 -276q-66 -92 -268 -197zM201 1284v154h123v-154h-123z" />
<glyph unicode="k" horiz-adv-x="1005" d="M188 0v1479h123v-873l170 6l332 412h139l-360 -469l364 -555h-141l-332 492l-172 -7v-485h-123z" />
<glyph unicode="l" horiz-adv-x="481" d="M180 0v1479h123v-1479h-123z" />
<glyph unicode="m" horiz-adv-x="1775" d="M188 0v1024h123v-74q137 82 287 88q31 1 54 2q37 0 61 -4q117 -16 172 -88q250 94 377 94q207 0 274 -108q68 -106 68 -402v-532h-123v502q0 260 -41 342q-43 86 -193 86q-72 0 -147 -21q-84 -23 -117 -39q-41 -20 -47 -24q29 -86 29 -314v-532h-121v528q0 242 -43 322 t-192.5 80t-297.5 -86v-844h-123z" />
<glyph unicode="n" horiz-adv-x="1165" d="M188 0v1024h123v-74q175 92 332 92q207 0 275 -108q68 -106 67 -402v-532h-121v530q0 229 -45 316q-43 84 -190 84q-152 0 -318 -86v-844h-123z" />
<glyph unicode="o" horiz-adv-x="1077" d="M111 528q0 273 98 394t334 120q223 0 325 -124q100 -121 101 -392q0 -289 -90 -420q-88 -127 -336 -126q-246 0 -340 124q-92 123 -92 424zM236 528q0 -248 59 -344q57 -94 248 -94q188 0 243.5 98.5t55.5 337.5q0 215 -72 312q-70 94 -227 94q-178 0 -242 -86 q-65 -89 -65 -318z" />
<glyph unicode="p" horiz-adv-x="1105" d="M188 -461v1485h123v-78q162 96 324 96q190 0 278 -124q86 -123 86 -394q0 -293 -102 -420q-100 -125 -340 -124q-123 0 -246 26v-467h-123zM311 115q138 -25 240 -25q178 0 249.5 100.5t71.5 337.5q0 215 -63.5 309.5t-185.5 94.5q-74 0 -143.5 -22.5t-123.5 -47.5 l-45 -22v-725z" />
<glyph unicode="q" horiz-adv-x="1097" d="M111 492q0 291 102 419q104 131 365 131l333 -18v-1485h-123v506q-125 -66 -284 -65q-213 0 -303 127t-90 385zM236 496q0 -205 61 -305.5t207 -100.5q152 0 284 72v760q-158 10 -210 10q-195 0 -269 -103q-73 -100 -73 -333z" />
<glyph unicode="r" horiz-adv-x="724" d="M188 0v1024h123v-145q23 18 51 36q31 20 134 68q98 46 190 61v-124q-84 -14 -180 -56q-94 -39 -146 -69l-49 -31v-764h-123z" />
<glyph unicode="s" horiz-adv-x="993" d="M117 754q0 154 104.5 221t255.5 67q59 0 162 -10q119 -12 145 -16l58 -8l-4 -109q-215 33 -355 33q-242 0 -241 -174q0 -80 53 -115q51 -33 213 -57q205 -33 291 -92q78 -53 78 -197q0 -170 -101 -244t-295 -73q-125 0 -352 36l8 109q238 -35 334 -35q143 0 211 43 q70 45 70 158q0 88 -54 121q-55 34 -227 61q-200 31 -276 86q-78 56 -78 195z" />
<glyph unicode="t" horiz-adv-x="747" d="M61 911v113h152v322h123v-322h342v-113h-342v-497q0 -201 26 -260q28 -61 136 -62l190 14l6 -108q-129 -20 -207 -21q-154 0 -215 76q-59 74 -59 295v563h-152z" />
<glyph unicode="u" horiz-adv-x="1140" d="M174 489v535h121v-530q0 -236 45 -322q43 -82 190 -82q70 0 144 21q70 18 117 45l40 20v848h121v-1024h-121v72q-160 -92 -315 -92q-209 0 -276 106q-66 104 -66 403z" />
<glyph unicode="v" horiz-adv-x="983" d="M57 1024h129l267 -918h79l269 918h127l-303 -1024h-269z" />
<glyph unicode="w" horiz-adv-x="1550" d="M63 1024h125l228 -913h28l267 893h131l264 -893h31l227 913h125l-258 -1024h-215l-242 844l-242 -844h-213z" />
<glyph unicode="x" horiz-adv-x="937" d="M63 0l330 512l-330 512h136l270 -422l272 422h136l-330 -512l330 -512h-138l-270 420l-270 -420h-136z" />
<glyph unicode="y" horiz-adv-x="983" d="M57 1024h125l273 -907h73l275 907h125l-443 -1485h-123l136 461h-140z" />
<glyph unicode="z" horiz-adv-x="980" d="M111 0v111l612 802h-612v111h759v-111l-610 -802h610v-111h-759z" />
<glyph unicode="{" horiz-adv-x="608" d="M12 584v106q111 27 160 82q47 53 47 148q0 27 -6 124q-8 131 -8 138q0 186 88 268q90 84 293 92l4 -117q-152 -10 -203 -65q-53 -59 -53 -184q0 -4 8 -127q6 -92 6 -121q0 -131 -45 -191q-46 -61 -160 -98q113 -37 158 -100q47 -66 47 -191q0 -10 -6 -102 q-8 -123 -8 -137q0 -129 53 -185q55 -58 203 -67l-4 -117q-201 8 -291 92t-90 268q0 12 8 136q6 92 6 116q0 92 -47 146q-46 52 -160 86z" />
<glyph unicode="|" d="M469 -209v1667h125v-1667h-125z" />
<glyph unicode="}" horiz-adv-x="608" d="M12 -143q145 8 201 67q55 58 55 185q0 14 -8 124q-6 82 -6 115q0 127 45 190.5t160 100.5q-114 37 -160 98q-45 59 -45 191q0 29 6 121q8 123 8 127q0 125 -53 184q-51 55 -203 65l2 117q203 -8 293 -92q88 -82 88 -268q0 -6 -8 -138q-6 -98 -6 -124q0 -96 45 -148 q47 -55 164 -82v-106q-117 -35 -162 -86q-47 -53 -47 -146q0 -25 6 -116q8 -123 8 -136q0 -184 -90 -268t-291 -92z" />
<glyph unicode="~" d="M133 662q6 6 35 30q22 18 80 49q55 29 108 29q68 0 203 -51q141 -53 180 -53q78 0 197 100l14 -121q-4 -4 -32 -29q-12 -10 -78 -47q-55 -31 -103 -30q-61 0 -202.5 53t-182.5 53q-82 0 -202 -102z" />
<glyph unicode="&#xa1;" d="M487 815v207h136v-207h-136zM489 -410l5 971h122l5 -971h-132z" />
<glyph unicode="&#xa2;" horiz-adv-x="892" d="M96 508q0 221 92 326q94 106 269 114v252h110v-256l219 -20l-6 -113q-207 16 -272 16q-158 0 -219.5 -71.5t-61.5 -247.5q0 -180 62 -244q61 -66 235 -65l260 14l4 -113q-158 -18 -219 -20v-250h-110v248q-193 8 -279 100q-84 90 -84 330z" />
<glyph unicode="&#xa3;" d="M176 0v111h180v626h-139v109h139v131q0 246 70 330q70 86 233 86q37 0 103 -7q18 -2 106 -14l43 -6v-106q-180 23 -249 22q-111 0 -148 -63q-37 -65 -37 -252v-121h359v-109h-359v-626h332l160 32l22 -106l-168 -37h-647z" />
<glyph unicode="&#xa4;" horiz-adv-x="1081" d="M102 164l146 141q-68 96 -68 209q0 115 66 211l-144 143l88 88l142 -145q96 66 209 66q115 0 211 -66l143 145l88 -88l-145 -143q66 -96 65 -211q0 -113 -65 -209l145 -141l-88 -88l-143 143q-96 -66 -209 -65q-117 0 -211 67l-142 -145zM299 516q0 -104 69.5 -174 t174.5 -70q102 0 172 70q72 72 71 174q0 100 -71 172q-70 70 -174 70q-102 0 -172 -70t-70 -172z" />
<glyph unicode="&#xa5;" horiz-adv-x="1103" d="M35 1352h141l379 -584l373 584h143l-366 -586h303v-109h-369l-21 -41v-153h392v-111h-392v-352h-126v352h-394v111h394v153l-19 41h-377v109h310z" />
<glyph unicode="&#xa6;" d="M465 -211v762h123v-762h-123zM465 772v764h123v-764h-123z" />
<glyph unicode="&#xa7;" d="M147 543q0 82 46 157q43 70 71 97q-90 68 -90 229q0 158 98 236q100 78 281 77q133 0 330 -30l-6 -105q-211 27 -318 27q-137 0 -199 -47q-66 -49 -65 -154q0 -115 63 -153q70 -43 234 -70q180 -35 256 -92.5t76 -200.5q0 -55 -19 -119q-16 -59 -37 -96q-23 -41 -30 -51 q76 -57 75 -199q0 -336 -376 -336q-66 0 -146 8q-133 14 -149 17l-60 8l13 104q223 -31 335 -30q264 0 265 223q0 101 -62 135q-66 37 -235 64q-184 31 -267 94q-84 66 -84 207zM270 559q0 -96 60 -139q63 -47 198 -68q145 -25 217 -55l17 33q16 33 26 76q12 53 13 94 q0 100 -57.5 139t-196.5 63q-150 27 -199 50q-78 -119 -78 -193z" />
<glyph unicode="&#xa8;" horiz-adv-x="464" d="M-16 1290v162h120v-162h-120zM387 1290v162h119v-162h-119z" />
<glyph unicode="&#xa9;" d="M20 889q0 231 150 387q152 158 373 158q225 0 374.5 -158t149.5 -387.5t-149 -384.5q-152 -158 -377 -158q-219 0 -371 158q-150 156 -150 385zM100 889q0 -197 125 -328q127 -133 318 -133q188 0 315 133t127 328q0 190 -127 328q-125 135 -315.5 135t-315.5 -135 q-127 -138 -127 -328zM309 889q0 158 51.5 235.5t184.5 77.5l151 -12l-2 -105q-72 14 -149 15q-82 0 -107 -51q-27 -53 -26 -160q0 -104 28.5 -157.5t104.5 -53.5l149 14l2 -102q-86 -16 -151 -17q-131 0 -183 78q-53 82 -53 238z" />
<glyph unicode="&#xaa;" horiz-adv-x="1058" d="M283 954q0 143 153 156l209 14v47q0 63 -24.5 88t-81.5 25l-213 -14l-4 63q152 16 217 17q89 0 129 -43q41 -45 41 -138v-274q12 -41 75 -47l-4 -57q-70 4 -110 45q-127 -45 -244 -45q-63 0 -102 45q-41 46 -41 118zM350 950q0 -94 82 -94q47 0 94 8q59 10 86 19l33 8 v174l-199 -12q-51 -2 -73.5 -29t-22.5 -74z" />
<glyph unicode="&#xab;" horiz-adv-x="1155" d="M184 459v104l371 283v-129l-264 -203l264 -223v-131zM647 459v104l371 283v-129l-264 -203l264 -223v-131z" />
<glyph unicode="&#xac;" d="M131 580v118h827v-456h-120v338h-707z" />
<glyph unicode="&#xad;" horiz-adv-x="899" d="M127 516v119h645v-119h-645z" />
<glyph unicode="&#xae;" d="M10 889q0 233 150 391q152 162 383 162q233 0 384.5 -162t151.5 -391q0 -233 -153.5 -393t-382.5 -160q-231 0 -383 160q-150 157 -150 393zM90 888.5q0 -196.5 129 -333.5q129 -139 324 -139q193 0 321 139q131 141 131 334q0 195 -131 336q-129 137 -321 137 q-195 0 -324 -137q-129 -140 -129 -336.5zM322 565v645h204q125 0 182.5 -45t57.5 -145q0 -154 -111 -191l123 -264h-106l-117 252h-135v-252h-98zM420 903h137q58 0 86 25q27 25 27 88q0 59 -33 84q-35 25 -109 24h-108v-221z" />
<glyph unicode="&#xaf;" horiz-adv-x="464" d="M-43 1305v108h578v-108h-578z" />
<glyph unicode="&#xb0;" d="M213 1155q0 127 80 207q78 78 207 78q127 0 205 -78q80 -80 79.5 -207t-79.5 -207q-78 -78 -205 -78q-129 0 -207 78q-80 80 -80 207zM305 1155q0 -90 53.5 -143.5t141.5 -53.5q90 0 143 54q55 55 55 143q0 90 -55 145q-53 53 -143 53.5t-142 -53.5q-53 -57 -53 -145z " />
<glyph unicode="&#xb1;" d="M92 659v115h393v273h119v-273h404v-115h-404v-276h-119v276h-393zM94 137v115h914v-115h-914z" />
<glyph unicode="&#xb2;" horiz-adv-x="540" d="M49 979v98l189 191q61 61 81 94q25 40 25 86q0 84 -106 84q-68 0 -177 -21l-6 101q117 25 203 24q199 0 199 -180q0 -68 -31 -121q-31 -52 -98 -116l-135 -140h274v-100h-418z" />
<glyph unicode="&#xb3;" horiz-adv-x="540" d="M55 981l6 96q121 -16 209 -16q111 0 111 96q0 100 -105 100h-133v97h131q34 0 62 30q29 33 29 74q0 78 -105 78q-82 0 -190 -16l-7 96q109 20 205 20q209 0 209 -168q0 -104 -88 -155q55 -18 80 -49q27 -33 27 -109q0 -197 -215 -197q-95 0 -226 23z" />
<glyph unicode="&#xb4;" horiz-adv-x="546" d="M61 1327l426 195l48 -113l-431 -182z" />
<glyph unicode="&#xb5;" d="M166 -498v1522h123v-545q0 -225 45 -309q43 -80 188 -80q70 0 144 21q70 18 116 45l41 20v848h123v-1024h-123v72q-160 -92 -315 -92q-158 0 -219 79v-557h-123z" />
<glyph unicode="&#x3bc;" d="M166 -498v1522h123v-545q0 -225 45 -309q43 -80 188 -80q70 0 144 21q70 18 116 45l41 20v848h123v-1024h-123v72q-160 -92 -315 -92q-158 0 -219 79v-557h-123z" />
<glyph unicode="&#xb6;" d="M16 1061q0 164 108.5 268.5t272.5 104.5h674v-105h-168v-1329h-112v1329h-267v-1329h-112v694h-15q-164 0 -272.5 102.5t-108.5 264.5z" />
<glyph unicode="&#xb7;" horiz-adv-x="505" d="M174 520v207h135v-207h-135z" />
<glyph unicode="&#xb8;" horiz-adv-x="1703" d="M795 -420l4 82q82 -6 145 -6q92 0 92 84q0 76 -92 76h-96v186h78v-108q120 0 172 -31q51 -31 51 -123q0 -172 -182 -172z" />
<glyph unicode="&#xb9;" horiz-adv-x="540" d="M68 1477l206 141h105v-639h-111v518l-149 -102z" />
<glyph unicode="&#xba;" horiz-adv-x="1075" d="M295 1073q0 276 235 277q121 0 175 -66q57 -70 57 -211q0 -283 -232 -282q-235 -1 -235 282zM365 1073q0 -121 38 -168q39 -49 127 -49t125 49t37 168t-37 164q-37 47 -125 47t-126.5 -47t-38.5 -164z" />
<glyph unicode="&#xbb;" horiz-adv-x="1155" d="M139 160v131l262 223l-262 203v129l371 -283v-104zM602 160v131l262 223l-262 203v129l371 -283v-104z" />
<glyph unicode="&#xbf;" horiz-adv-x="788" d="M18 -86q0 94 41 176q41 84 99 137q58 55 116.5 104.5t98.5 104.5q41 57 41 111v78h129v-84q0 -70 -41 -135q-40 -65 -99 -117q-90 -78 -116 -103q-57 -51 -98.5 -120.5t-41.5 -143.5q0 -127 70 -178t227 -51q43 0 123 12q70 10 142 29l59 12l14 -121q-229 -55 -342 -55 q-213 0 -317.5 80t-104.5 264zM410 815v207h135v-207h-135z" />
<glyph unicode="&#xc0;" horiz-adv-x="1234" d="M66 0l409 1427h297l404 -1425h-127l-119 387h-623l-114 -389h-127zM338 510h563l-227 801h-107zM352 1792l47 113l426 -195l-43 -98z" />
<glyph unicode="&#xc1;" horiz-adv-x="1234" d="M66 0l409 1427h297l404 -1425h-127l-119 387h-623l-114 -389h-127zM338 510h563l-227 801h-107zM397 1737l426 194l47 -112l-430 -183z" />
<glyph unicode="&#xc2;" horiz-adv-x="1234" d="M66 0l409 1427h297l404 -1425h-127l-119 387h-623l-114 -389h-127zM313 1628l254 291h99l254 -291h-140l-162 184l-165 -184h-140zM338 510h563l-227 801h-107z" />
<glyph unicode="&#xc3;" horiz-adv-x="1234" d="M66 0l409 1427h297l404 -1425h-127l-119 387h-623l-114 -389h-127zM291 1788q102 104 180 104q51 0 159.5 -51t141.5 -51q18 0 51 20l62 41l24 21l29 -96q-92 -98 -166 -99q-49 0 -160 52q-117 53 -143 53q-18 0 -57 -23q-23 -12 -64 -45l-26 -22zM338 510h563l-227 801 h-107z" />
<glyph unicode="&#xc4;" horiz-adv-x="1234" d="M66 0l409 1427h297l404 -1425h-127l-119 387h-623l-114 -389h-127zM338 510h563l-227 801h-107zM387 1700v162h119v-162h-119zM788 1700v162h119v-162h-119z" />
<glyph unicode="&#xc5;" horiz-adv-x="1234" d="M66 0l395 1378q-68 59 -68 158q0 94 61.5 149.5t164 55.5t164 -55.5t61.5 -149.5t-62 -150l394 -1384h-127l-119 387h-623l-114 -389h-127zM338 510h563l-227 801h-107zM496 1536q0 -90 86 -109h73q86 14 86 109q0 55 -32 82q-35 29 -90.5 29t-90.5 -29q-32 -27 -32 -82z " />
<glyph unicode="&#xc6;" horiz-adv-x="1837" d="M78 0l479 1427h1174v-118h-727v-516h604v-119h-604v-555h727v-119h-852v389h-535l-133 -389h-133zM381 510h498v799h-228z" />
<glyph unicode="&#xc7;" horiz-adv-x="1097" d="M109 709q0 184 22.5 315t75.5 229q55 102 158 148q106 47 260 47q84 0 182 -12q106 -14 149 -21l56 -10l-8 -117q-213 39 -369 39q-121 0 -205 -39q-82 -37 -121 -123q-40 -86 -55 -190q-14 -98 -14 -266q0 -135 8 -215q10 -90 33 -166q25 -78 67 -125q41 -45 117 -74 q68 -27 172 -27q70 0 151 9q92 9 154 18l62 10l6 -114q-217 -43 -365 -45v-86q117 0 170 -31t53 -123q0 -172 -182 -172l-172 12l4 82q84 -6 146 -6q92 0 92 84q0 76 -92 76h-97v166q-266 14 -362 192q-96 177 -96 535z" />
<glyph unicode="&#xc8;" horiz-adv-x="1159" d="M195 0v1427h852v-118h-728v-523h605v-118h-605v-549h728v-119h-852zM377 1792l47 113l426 -195l-43 -98z" />
<glyph unicode="&#xc9;" horiz-adv-x="1169" d="M197 0v1427h852v-118h-727v-523h604v-118h-604v-549h727v-119h-852zM418 1737l426 194l47 -112l-430 -183z" />
<glyph unicode="&#xca;" horiz-adv-x="1169" d="M197 0v1427h852v-118h-727v-523h604v-118h-604v-549h727v-119h-852zM328 1628l254 291h98l254 -291h-139l-162 184l-166 -184h-139z" />
<glyph unicode="&#xcb;" horiz-adv-x="1169" d="M197 0v1427h852v-118h-727v-523h604v-118h-604v-549h727v-119h-852zM369 1700v162h118v-162h-118zM770 1700v162h121v-162h-121z" />
<glyph unicode="&#xcc;" horiz-adv-x="487" d="M-49 1792l47 113l426 -195l-43 -98zM182 0v1427h125v-1427h-125z" />
<glyph unicode="&#xcd;" horiz-adv-x="487" d="M29 1716l426 195l47 -113l-430 -182zM182 0v1427h125v-1427h-125z" />
<glyph unicode="&#xce;" horiz-adv-x="487" d="M-82 1645l275 268h108l272 -268h-145l-180 170l-180 -170h-150zM182 0v1427h125v-1427h-125z" />
<glyph unicode="&#xcf;" horiz-adv-x="487" d="M-20 1694v161h120v-161h-120zM182 0v1427h125v-1427h-125zM395 1694v161h119v-161h-119z" />
<glyph unicode="&#xd0;" horiz-adv-x="1320" d="M47 641v119h148v667h514q508 0 508 -692q0 -735 -508 -735h-514v641h-148zM319 119h390q109 0 184.5 51t116.5 145q37 88 57 195q18 100 18 225q0 573 -376 574h-390v-549h322v-119h-322v-522z" />
<glyph unicode="&#xd1;" horiz-adv-x="1404" d="M188 0v1427h242l608 -1286h49v1286h127v-1427h-237l-615 1286h-49v-1286h-125zM373 1788q102 104 180 104q51 0 159.5 -51t141.5 -51q18 0 51 20l62 41l24 21l29 -96q-92 -98 -166 -99q-49 0 -160 52q-117 53 -143 53q-18 0 -57 -23q-23 -12 -64 -45l-27 -22z" />
<glyph unicode="&#xd2;" horiz-adv-x="1341" d="M115 707q0 373 121 559q119 182 434 182q313 0 436 -182q121 -178 121 -559q0 -385 -119 -555q-121 -172 -438 -172q-313 0 -434 176t-121 551zM246 707q0 -160 18 -265q20 -115 62 -186q47 -82 129 -119q83 -37 215 -37q254 0 340 138q86 139 86 469q0 317 -90.5 468.5 t-335.5 151.5q-248 0 -336 -149t-88 -471zM422 1792l47 113l426 -195l-43 -98z" />
<glyph unicode="&#xd3;" horiz-adv-x="1341" d="M115 707q0 373 121 559q119 182 434 182q313 0 436 -182q121 -178 121 -559q0 -385 -119 -555q-121 -172 -438 -172q-313 0 -434 176t-121 551zM246 707q0 -160 18 -265q20 -115 62 -186q47 -82 129 -119q83 -37 215 -37q254 0 340 138q86 139 86 469q0 317 -90.5 468.5 t-335.5 151.5q-248 0 -336 -149t-88 -471zM428 1737l426 194l47 -112l-430 -183z" />
<glyph unicode="&#xd4;" horiz-adv-x="1341" d="M115 707q0 373 121 559q119 182 434 182q313 0 436 -182q121 -178 121 -559q0 -385 -119 -555q-121 -172 -438 -172q-313 0 -434 176t-121 551zM246 707q0 -160 18 -265q20 -115 62 -186q47 -82 129 -119q83 -37 215 -37q254 0 340 138q86 139 86 469q0 317 -90.5 468.5 t-335.5 151.5q-248 0 -336 -149t-88 -471zM367 1628l254 291h98l254 -291h-139l-162 184l-166 -184h-139z" />
<glyph unicode="&#xd5;" horiz-adv-x="1341" d="M115 707q0 379 121 559q121 182 436 182q313 0 434 -182.5t121 -558.5q0 -385 -119 -555q-120 -172 -436 -172q-315 0 -436 176t-121 551zM246 706.5q0 -319.5 88 -464.5q86 -141 338 -142q254 0 340 138q84 135 84 469q0 319 -88 469q-90 152 -336 151q-248 0 -336 -149 q-90 -152 -90 -471.5zM344 1788q102 104 180 104q51 0 160 -51t141 -51q18 0 52 20q53 35 61 41l25 21l28 -96q-92 -98 -166 -99q-49 0 -159 52q-117 53 -144 53q-18 0 -57 -23q-23 -12 -64 -45l-26 -22z" />
<glyph unicode="&#xd6;" horiz-adv-x="1341" d="M115 707q0 379 121 559q121 182 436 182q313 0 434 -182.5t121 -558.5q0 -385 -119 -555q-120 -172 -436 -172q-315 0 -436 176t-121 551zM246 706.5q0 -319.5 88 -464.5q86 -141 338 -142q254 0 340 138q84 135 84 469q0 319 -88 469q-90 152 -336 151q-248 0 -336 -149 q-90 -152 -90 -471.5zM403 1700v162h121v-162h-121zM807 1700v162h119v-162h-119z" />
<glyph unicode="&#xd7;" horiz-adv-x="1548" d="M383 123l397 414l-393 407l86 82l389 -408l391 408l86 -82l-395 -407l399 -414l-86 -80l-395 410l-395 -410z" />
<glyph unicode="&#xd8;" horiz-adv-x="1335" d="M113 707q0 373 120 559q119 182 435 182q152 0 264 -47l108 231l115 -45l-119 -250q188 -164 189 -630q0 -385 -119 -555q-119 -172 -438 -172q-135 0 -250 36l-119 -254l-113 50l123 264q-113 86 -153 235q-43 154 -43 396zM244 707q0 -384 123 -510l512 1089 q-92 41 -211 41q-248 0 -336 -149t-88 -471zM471 131q80 -31 197 -31q254 0 340 138q86 139 86 469q0 369 -117 503z" />
<glyph unicode="&#xd9;" horiz-adv-x="1310" d="M168 418v1009h127v-1009q0 -315 354 -316q182 0 275 72q94 74 94 244v1009h125v-1009q0 -233 -123 -334q-125 -102 -371 -102q-238 0 -360 104q-121 103 -121 332zM328 1792l47 113l426 -195l-43 -98z" />
<glyph unicode="&#xda;" horiz-adv-x="1312" d="M170 418v1009h127v-1009q0 -315 354 -316q182 0 275 72q94 74 94 244v1009h125v-1009q0 -233 -123 -334q-125 -102 -371 -102q-238 0 -360 104q-121 103 -121 332zM416 1737l426 194l47 -112l-430 -183z" />
<glyph unicode="&#xdb;" horiz-adv-x="1312" d="M170 418v1009h127v-1009q0 -315 354 -316q182 0 275 72q94 74 94 244v1009h125v-1009q0 -233 -123 -334q-125 -102 -371 -102q-238 0 -360 104q-121 103 -121 332zM356 1628l254 291h99l254 -291h-140l-161 184l-166 -184h-140z" />
<glyph unicode="&#xdc;" horiz-adv-x="1312" d="M172 418v1009h125v-1009q0 -315 354 -316q182 0 275 72q94 74 94 244v1009h127v-1009q0 -233 -125 -334q-127 -102 -371 -102q-233 0 -358 102q-121 101 -121 334zM430 1700v162h119v-162h-119zM831 1700v162h121v-162h-121z" />
<glyph unicode="&#xdd;" horiz-adv-x="1103" d="M35 1427h141l379 -673l373 673h141l-451 -815v-612h-126v612zM301 1737l426 194l47 -112l-430 -183z" />
<glyph unicode="&#xde;" horiz-adv-x="1214" d="M170 0v1427h125v-237h393q227 0 336 -108.5t109 -338.5q0 -231 -111 -358t-334 -127h-393v-258h-125zM295 379h393q313 0 313 364q0 166 -75 248q-74 80 -238 80h-393v-692z" />
<glyph unicode="&#xdf;" horiz-adv-x="1224" d="M188 0v1128q0 205 91 287q94 84 294 84q207 0 293 -67.5t86 -219.5q0 -203 -147 -264q-86 -33 -110.5 -51t-24.5 -49q0 -25 30 -49q37 -29 146 -92q27 -14 56.5 -31t47 -26t25.5 -15q6 -4 74 -53q45 -33 57 -62q10 -23 10 -65q0 -264 -98 -368.5t-389 -104.5l-180 18 l8 104q123 -8 172 -8q117 0 188.5 18.5t108.5 65.5q37 46 49 104.5t12 159.5q0 29 -49 66q-47 35 -184 108q-135 70 -174 113q-39 41 -39 111q0 68 39 104q43 41 133 78q68 27 90 72q20 41 20 110q0 100 -55 140q-53 39 -195 38q-137 0 -200 -57q-59 -53 -60 -219v-1108 h-125z" />
<glyph unicode="&#xe0;" horiz-adv-x="1067" d="M94 289q0 141 74 213q74 71 227 86l348 35v92q0 211 -196 211q-150 0 -389 -31l-8 109q236 39 401 38q162 0 237 -79q76 -78 76 -248v-535q10 -78 133 -92l-6 -106q-164 0 -231 77q-184 -80 -393 -79q-129 0 -201 79q-72 83 -72 230zM221 291q0 -100 41 -150 q43 -53 119 -53q78 0 168 18q117 25 141 33l53 19v362l-333 -31q-189 -16 -189 -198zM256 1413l45 109l426 -195l-41 -96z" />
<glyph unicode="&#xe1;" horiz-adv-x="1067" d="M94 289q0 141 74 213q74 71 227 86l348 35v92q0 211 -196 211q-150 0 -389 -31l-8 109q236 39 401 38q162 0 237 -79q76 -78 76 -248v-535q10 -78 133 -92l-6 -106q-164 0 -231 77q-184 -80 -393 -79q-129 0 -201 79q-72 83 -72 230zM221 291q0 -100 41 -150 q43 -53 119 -53q78 0 168 18q117 25 141 33l53 19v362l-333 -31q-189 -16 -189 -198zM258 1327l426 195l47 -113l-430 -182z" />
<glyph unicode="&#xe2;" horiz-adv-x="1067" d="M94 289q0 141 74 213q74 71 227 86l348 35v92q0 211 -196 211q-150 0 -389 -31l-8 109q236 39 401 38q162 0 237 -79q76 -78 76 -248v-535q10 -78 133 -92l-6 -106q-164 0 -231 77q-184 -80 -393 -79q-129 0 -201 79q-72 83 -72 230zM197 1219l254 290h98l254 -290h-139 l-162 184l-166 -184h-139zM221 291q0 -100 41 -150q43 -53 119 -53q78 0 168 18q117 25 141 33l53 19v362l-333 -31q-189 -16 -189 -198z" />
<glyph unicode="&#xe3;" horiz-adv-x="1067" d="M94 289q0 141 74 213q74 71 227 86l348 35v92q0 211 -196 211q-150 0 -389 -31l-6 109q233 39 399 38q162 0 237 -79q78 -82 78 -248v-535q2 -76 131 -92l-6 -106q-162 0 -229 77q-188 -80 -395 -79q-129 0 -201 79q-72 83 -72 230zM174 1378q100 104 180 105 q51 0 160 -51.5t141 -51.5q18 0 52 21q53 35 61 41l25 20l28 -96q-92 -98 -166 -98q-43 0 -159 53q-111 51 -144 51q-18 0 -57 -22q-23 -12 -64 -45l-26 -23zM221 291q0 -100 41 -150q43 -53 119 -53q78 0 168 18q117 25 141 33l53 19v362l-331 -31q-191 -14 -191 -198z" />
<glyph unicode="&#xe4;" horiz-adv-x="1067" d="M94 289q0 141 74 213q74 71 227 86l348 35v92q0 211 -196 211q-150 0 -389 -31l-6 109q233 39 399 38q162 0 237 -79q78 -82 78 -248v-535q2 -76 131 -92l-6 -106q-162 0 -229 77q-188 -80 -395 -79q-129 0 -201 79q-72 83 -72 230zM221 291q0 -100 41 -150 q43 -53 119 -53q78 0 168 18q117 25 141 33l53 19v362l-331 -31q-191 -14 -191 -198zM256 1290v162h119v-162h-119zM657 1290v162h119v-162h-119z" />
<glyph unicode="&#xe5;" horiz-adv-x="1067" d="M94 289q0 141 74 213q74 71 227 86l348 35v92q0 211 -196 211q-150 0 -389 -31l-8 109q236 39 401 38q162 0 237 -79q76 -78 76 -248v-535q10 -78 133 -92l-6 -106q-164 0 -231 77q-184 -80 -393 -79q-129 0 -201 79q-72 83 -72 230zM221 291q0 -100 41 -150 q43 -53 119 -53q78 0 168 18q117 25 141 33l53 19v362l-333 -31q-189 -16 -189 -198zM317 1325q0 86 59.5 145.5t147.5 59.5q86 0 145.5 -59.5t59.5 -145.5q0 -88 -59.5 -147.5t-145.5 -59.5q-88 0 -147.5 59.5t-59.5 147.5zM414 1325q0 -49 32.5 -82t77.5 -33t78 33t33 82 q0 47 -33 80t-78 33t-77.5 -33t-32.5 -80z" />
<glyph unicode="&#xe6;" horiz-adv-x="1693" d="M111 289q0 162 82 223q84 61 290 84l277 27v92q0 211 -197 211q-68 0 -166 -6q-152 -10 -159 -11l-64 -4l-4 111q227 27 397 26q219 0 279 -165q100 166 334 165q201 0 303 -116q100 -115 100 -367l-6 -98h-696q4 -193 65 -279q66 -90 221 -90q147 0 373 19l4 -103 q-240 -29 -389 -28q-203 0 -299 114l-70 -31q-190 -84 -403 -83q-272 0 -272 309zM238 291q0 -100 41 -150q43 -53 118 -53q181 0 406 86q-47 117 -47 346l-330 -31q-94 -8 -143 -57q-45 -45 -45 -141zM881 563h577q0 199 -67.5 285t-210.5 86q-299 0 -299 -371z" />
<glyph unicode="&#xe7;" horiz-adv-x="892" d="M111 530q0 276 96 396q95 117 325 116q39 0 107 -6q63 -6 113 -12l47 -6l-4 -109q-164 18 -242 19q-182 0 -249.5 -86t-67.5 -312q0 -244 63 -342q61 -94 254 -94l244 19l6 -109q-184 -25 -273 -24h-4v-86q120 0 172 -31q51 -31 52 -123q0 -172 -183 -172l-172 12l4 82 q84 -6 146 -6q92 0 92 84q0 76 -92 76h-96v168q-195 16 -267 139q-71 124 -71 407z" />
<glyph unicode="&#xe8;" horiz-adv-x="1030" d="M109 508q0 535 421 534q203 0 304 -116q100 -115 100 -367l-4 -98h-697q0 -190 64 -279q66 -90 221 -90q96 0 160 4q18 2 74.5 5t81.5 5l59 5l4 -103q-240 -29 -391 -28q-221 2 -309 131q-88 127 -88 397zM233 563h578q0 203 -65.5 287t-215.5 84q-297 0 -297 -371z M242 1405l45 108l426 -194l-41 -96z" />
<glyph unicode="&#xe9;" horiz-adv-x="1030" d="M109 508q0 535 421 534q203 0 304 -116q100 -115 100 -367l-4 -98h-697q0 -190 64 -279q66 -90 221 -90q96 0 160 4q18 2 74.5 5t81.5 5l59 5l4 -103q-240 -29 -391 -28q-221 2 -309 131q-88 127 -88 397zM233 563h578q0 203 -65.5 287t-215.5 84q-297 0 -297 -371z M324 1327l426 195l47 -113l-430 -182z" />
<glyph unicode="&#xea;" horiz-adv-x="1030" d="M109 508q0 535 421 534q203 0 304 -116q100 -115 100 -367l-4 -98h-697q0 -190 64 -279q66 -90 221 -90q96 0 160 4q18 2 74.5 5t81.5 5l59 5l4 -103q-240 -29 -391 -28q-221 2 -309 131q-88 127 -88 397zM233 563h578q0 203 -65.5 287t-215.5 84q-297 0 -297 -371z M238 1219l254 290h98l254 -290h-139l-162 184l-166 -184h-139z" />
<glyph unicode="&#xeb;" horiz-adv-x="1030" d="M109 508q0 535 423 534q201 0 304 -116q100 -115 100 -367l-6 -98h-694q0 -190 63 -279q66 -90 221 -90q96 0 160 4q18 2 74.5 5t81.5 5l59 5l4 -103q-240 -29 -391 -28q-221 2 -309 131q-90 131 -90 397zM233 563h578q0 199 -66 287q-63 84 -213 84q-297 0 -299 -371z M266 1290v162h119v-162h-119zM668 1290v162h120v-162h-120z" />
<glyph unicode="&#xec;" horiz-adv-x="532" d="M27 1413l45 109l426 -195l-41 -96zM207 0v1024h123v-1024h-123z" />
<glyph unicode="&#xed;" horiz-adv-x="532" d="M88 1327l426 195l47 -113l-430 -182zM207 0v1024h123v-1024h-123z" />
<glyph unicode="&#xee;" horiz-adv-x="536" d="M-39 1219l254 290h98l254 -290h-139l-162 184l-166 -184h-139zM207 0v1024h123v-1024h-123z" />
<glyph unicode="&#xef;" horiz-adv-x="532" d="M0 1290v162h121v-162h-121zM207 0v1024h123v-1024h-123zM403 1290v162h119v-162h-119z" />
<glyph unicode="&#xf0;" d="M90 449q0 195 117 311.5t309 116.5q156 0 356 -80q-12 291 -319 458l-231 -161l-58 80l189 131q-117 51 -248 84l31 104q200 -49 325 -111l205 144l57 -80l-166 -117q344 -207 344 -606q0 -403 -106 -571q-109 -170 -354 -170q-211 0 -332 120q-119 120 -119 347z M219 449q0 -170 82 -261q83 -92 240 -92q180 0 254 129q76 131 77 459q-203 80 -350 80q-139 0 -221 -88t-82 -227z" />
<glyph unicode="&#xf1;" horiz-adv-x="1171" d="M195 0v1024h122v-74q175 92 332 92q205 0 273 -108q70 -111 69 -402v-532h-123v530q0 229 -45 316q-43 84 -188 84q-152 0 -318 -86v-844h-122zM283 1378q102 104 180 105q51 0 159.5 -51.5t141.5 -51.5q18 0 51 21l62 41l24 20l29 -96q-92 -98 -166 -98q-43 0 -160 53 q-111 51 -143 51q-18 0 -58 -22q-23 -12 -63 -45l-27 -23z" />
<glyph unicode="&#xf2;" horiz-adv-x="1077" d="M111 528q0 273 98 394t334 120q223 0 325 -124q100 -121 101 -392q0 -289 -90 -420q-88 -127 -336 -126q-246 0 -340 124q-92 123 -92 424zM236 528q0 -248 59 -344q57 -94 248 -94q188 0 243.5 98.5t55.5 337.5q0 215 -72 312q-70 94 -227 94q-178 0 -242 -86 q-65 -89 -65 -318zM297 1413l45 109l426 -195l-41 -96z" />
<glyph unicode="&#xf3;" horiz-adv-x="1077" d="M111 528q0 273 98 394t334 120q223 0 325 -124q100 -121 101 -392q0 -289 -90 -420q-88 -127 -336 -126q-246 0 -340 124q-92 123 -92 424zM236 528q0 -248 59 -344q57 -94 248 -94q188 0 243.5 98.5t55.5 337.5q0 215 -72 312q-70 94 -227 94q-178 0 -242 -86 q-65 -89 -65 -318zM324 1327l426 195l47 -113l-430 -182z" />
<glyph unicode="&#xf4;" horiz-adv-x="1077" d="M111 528q0 273 98 394t334 120q223 0 325 -124q100 -121 101 -392q0 -289 -90 -420q-88 -127 -336 -126q-246 0 -340 124q-92 123 -92 424zM233 1219l254 290h99l254 -290h-140l-161 184l-166 -184h-140zM236 528q0 -248 59 -344q57 -94 248 -94q188 0 243.5 98.5 t55.5 337.5q0 215 -72 312q-70 94 -227 94q-178 0 -242 -86q-65 -89 -65 -318z" />
<glyph unicode="&#xf5;" horiz-adv-x="1077" d="M111 528q0 273 98 394t334 120q223 0 325 -124q100 -121 101 -392q0 -289 -90 -420q-88 -127 -336 -126q-246 0 -340 124q-92 123 -92 424zM215 1378q100 104 180 105q51 0 160 -51.5t141 -51.5q18 0 52 21q53 35 61 41l25 20l28 -96q-92 -98 -168 -98q-47 0 -159 53 q-109 51 -142 51q-47 0 -149 -90zM236 528q0 -248 59 -344q57 -94 248 -94q188 0 243.5 98.5t55.5 337.5q0 215 -72 312q-70 94 -227 94q-178 0 -242 -86q-65 -89 -65 -318z" />
<glyph unicode="&#xf6;" horiz-adv-x="1077" d="M111 528q0 273 98 394t334 120q223 0 325 -124q100 -121 101 -392q0 -289 -90 -420q-88 -127 -336 -126q-246 0 -340 124q-92 123 -92 424zM236 528q0 -248 59 -344q57 -94 248 -94q188 0 243.5 98.5t55.5 337.5q0 215 -72 312q-70 94 -227 94q-178 0 -242 -86 q-65 -89 -65 -318zM270 1290v162h121v-162h-121zM674 1290v162h119v-162h-119z" />
<glyph unicode="&#xf7;" d="M154 719v123h583v-123h-583zM283 858v186h321v-186h-321zM381 238v190h129v-190h-129z" />
<glyph unicode="&#xf8;" horiz-adv-x="1077" d="M111 528q0 273 98 394t334 120q84 0 157 -20l88 217l89 -31l-93 -221q184 -106 185 -461q0 -289 -90 -420q-88 -127 -336 -126q-82 0 -164 16l-92 -227l-88 30l94 228q-101 52 -141 172q-41 122 -41 329zM236 528q0 -162 22 -258q20 -92 84 -133l315 778q-47 16 -114 17 q-178 0 -242 -86q-65 -89 -65 -318zM420 102q52 -12 123 -12q188 0 243.5 98.5t55.5 337.5q0 262 -107 348z" />
<glyph unicode="&#xf9;" horiz-adv-x="1140" d="M174 489v535h121v-530q0 -236 45 -322q43 -82 190 -82q70 0 144 21q70 18 117 45l40 20v848h121v-1024h-121v72q-160 -92 -315 -92q-209 0 -276 106q-66 104 -66 403zM270 1409l49 111l426 -195l-47 -102z" />
<glyph unicode="&#xfa;" horiz-adv-x="1140" d="M174 489v535h121v-530q0 -236 45 -322q43 -82 190 -82q70 0 144 21q70 18 117 45l40 20v848h121v-1024h-121v72q-160 -92 -315 -92q-209 0 -276 106q-66 104 -66 403zM350 1327l426 195l47 -113l-430 -182z" />
<glyph unicode="&#xfb;" horiz-adv-x="1140" d="M174 489v535h121v-530q0 -236 45 -322q43 -82 190 -82q70 0 144 21q70 18 117 45l40 20v848h121v-1024h-121v72q-160 -92 -315 -92q-209 0 -276 106q-66 104 -66 403zM248 1219l254 290h98l254 -290h-139l-162 184l-166 -184h-139z" />
<glyph unicode="&#xfc;" horiz-adv-x="1140" d="M174 489v535h121v-530q0 -236 45 -322q43 -82 190 -82q70 0 144 21q70 18 117 45l40 20v848h121v-1024h-121v72q-160 -92 -315 -92q-209 0 -276 106q-66 104 -66 403zM322 1290v162h118v-162h-118zM723 1290v162h119v-162h-119z" />
<glyph unicode="&#xfd;" horiz-adv-x="980" d="M45 1024h125l272 -907h74l275 907h124l-442 -1485h-123l135 461h-139zM301 1327l426 195l47 -113l-430 -182z" />
<glyph unicode="&#xfe;" horiz-adv-x="1099" d="M254 -461v1940h123v-508q162 72 319 71q205 0 285 -116.5t80 -395.5q0 -307 -100 -428q-100 -123 -379 -122q-45 0 -205 10v-451h-123zM377 102q143 -12 205 -12q217 0 284.5 98.5t67.5 339.5q0 215 -53 310q-53 92 -195 92q-63 0 -145 -17q-66 -12 -121 -32l-43 -17 v-762z" />
<glyph unicode="&#xff;" horiz-adv-x="983" d="M57 1024h125l273 -907h73l275 907h125l-443 -1485h-123l136 461h-140zM225 1290v162h121v-162h-121zM629 1290v162h119v-162h-119z" />
<glyph unicode="&#x100;" horiz-adv-x="1234" d="M63 0l410 1427h297l404 -1425h-127l-119 387h-623l-115 -389h-127zM293 1683v109h618v-109h-618zM336 510h563l-227 801h-107z" />
<glyph unicode="&#x101;" horiz-adv-x="1062" d="M104 289q0 143 72 213q74 72 230 86l348 35v92q0 211 -197 211q-150 0 -389 -31l-8 109q236 39 401 38q160 0 236 -79q78 -82 77 -248v-535q10 -78 134 -92l-7 -106q-164 0 -231 77q-184 -80 -393 -79q-131 0 -201 79q-72 83 -72 230zM231 291q0 -100 41 -150 q43 -53 119 -53q80 0 168 18q117 25 141 33l54 19v362l-334 -31q-189 -16 -189 -198zM238 1305v108h577v-108h-577z" />
<glyph unicode="&#x102;" horiz-adv-x="1234" d="M63 0l410 1427h297l404 -1425h-127l-119 387h-623l-115 -389h-127zM311 1894h125q2 -70 56 -112q49 -41 126 -41t130 43q49 41 53 110h125q-4 -119 -88 -188q-88 -72 -219.5 -72t-219.5 72q-84 69 -88 188zM336 510h563l-227 801h-107z" />
<glyph unicode="&#x103;" horiz-adv-x="1062" d="M104 289q0 143 72 213q74 72 230 86l348 35v92q0 211 -197 211q-150 0 -389 -31l-8 109q236 39 401 38q160 0 236 -79q78 -82 77 -248v-535q10 -78 134 -92l-7 -106q-164 0 -231 77q-184 -80 -393 -79q-131 0 -201 79q-72 83 -72 230zM221 1493h125q4 -78 51 -123 q51 -47 135 -47t136 47q47 45 51 123h125q-3 -126 -86 -203q-84 -78 -225.5 -78t-225.5 78q-83 77 -86 203zM231 291q0 -100 41 -150q43 -53 119 -53q80 0 168 18q117 25 141 33l54 19v362l-334 -31q-189 -16 -189 -198z" />
<glyph unicode="&#x104;" horiz-adv-x="1234" d="M63 0l410 1427h297l404 -1425h-11q-152 -152 -151 -219q0 -39 24 -64q27 -27 60 -26l104 12l12 -104q-82 -18 -149 -19q-76 0 -127 47t-51 127q0 63 55 138q51 70 104 114l-116 381h-623l-115 -389h-127zM336 510h563l-227 801h-107z" />
<glyph unicode="&#x105;" horiz-adv-x="1062" d="M104 289q0 143 72 213q74 72 230 86l348 35v92q0 211 -197 211q-150 0 -389 -31l-8 109q236 39 401 38q160 0 236 -79q78 -82 77 -248v-535q10 -78 134 -92l-7 -106q-49 0 -63 2q-133 -143 -133 -201q0 -39 24 -64q27 -27 60 -26l104 12l13 -104q-84 -18 -150 -19 q-78 0 -129 47q-49 47 -49 127q0 104 160 252q-41 18 -68 51q-184 -80 -393 -79q-131 0 -201 79q-72 83 -72 230zM231 291q0 -100 41 -150q43 -53 119 -53q80 0 168 18q117 25 141 33l54 19v362l-334 -31q-189 -16 -189 -198z" />
<glyph unicode="&#x106;" horiz-adv-x="1093" d="M109 709q0 184 22.5 315t75.5 229q55 102 158 148q106 47 260 47q84 0 182 -12q106 -14 149 -21l56 -10l-8 -117q-213 39 -369 39q-121 0 -205 -39q-82 -37 -121 -123q-40 -86 -55 -190q-14 -98 -14 -266q0 -135 8 -215q10 -90 33 -166q25 -78 67 -125q41 -45 117 -74 q68 -27 172 -27q70 0 151 9q92 9 154 18l62 10l6 -114q-219 -45 -385 -45q-154 0 -260 47q-100 45 -158 145q-53 96 -76 225q-22 132 -22 312zM356 1716l426 195l47 -113l-430 -182z" />
<glyph unicode="&#x107;" horiz-adv-x="892" d="M111 530q0 276 96 396q95 117 325 116q39 0 107 -6q63 -6 113 -12l47 -6l-4 -109q-164 18 -242 19q-182 0 -249.5 -86t-67.5 -312q0 -244 63 -342q61 -94 254 -94l244 19l6 -109q-184 -25 -273 -24q-246 0 -331 120q-88 123 -88 430zM256 1327l426 195l47 -113l-430 -182 z" />
<glyph unicode="&#x108;" horiz-adv-x="1093" d="M109 709q0 184 22.5 315t75.5 229q55 102 158 148q106 47 260 47q84 0 182 -12q106 -14 149 -21l56 -10l-8 -117q-213 39 -369 39q-121 0 -205 -39q-82 -37 -121 -123q-40 -86 -55 -190q-14 -98 -14 -266q0 -135 8 -215q10 -90 33 -166q25 -78 67 -125q41 -45 117 -74 q68 -27 172 -27q70 0 151 9q92 9 154 18l62 10l6 -114q-219 -45 -385 -45q-154 0 -260 47q-100 45 -158 145q-53 96 -76 225q-22 132 -22 312zM297 1636l274 269h109l272 -269h-145l-180 170l-181 -170h-149z" />
<glyph unicode="&#x109;" horiz-adv-x="892" d="M111 530q0 276 96 396q95 117 325 116q39 0 107 -6q63 -6 113 -12l47 -6l-4 -109q-164 18 -242 19q-182 0 -249.5 -86t-67.5 -312q0 -244 63 -342q61 -94 254 -94l244 19l6 -109q-184 -25 -273 -24q-246 0 -331 120q-88 123 -88 430zM174 1219l254 290h98l254 -290h-139 l-162 184l-166 -184h-139z" />
<glyph unicode="&#x10a;" horiz-adv-x="1093" d="M109 709q0 184 22.5 315t75.5 229q55 102 158 148q106 47 260 47q84 0 182 -12q106 -14 149 -21l56 -10l-8 -117q-213 39 -369 39q-121 0 -205 -39q-82 -37 -121 -123q-40 -86 -55 -190q-14 -98 -14 -266q0 -135 8 -215q10 -90 33 -166q25 -78 67 -125q41 -45 117 -74 q68 -27 172 -27q70 0 151 9q92 9 154 18l62 10l6 -114q-219 -45 -385 -45q-154 0 -260 47q-100 45 -158 145q-53 96 -76 225q-22 132 -22 312zM532 1696v153h123v-153h-123z" />
<glyph unicode="&#x10b;" horiz-adv-x="892" d="M111 530q0 276 96 396q95 117 325 116q39 0 107 -6q63 -6 113 -12l47 -6l-4 -109q-164 18 -242 19q-182 0 -249.5 -86t-67.5 -312q0 -244 63 -342q61 -94 254 -94l244 19l6 -109q-184 -25 -273 -24q-246 0 -331 120q-88 123 -88 430zM426 1276v154h123v-154h-123z" />
<glyph unicode="&#x10c;" horiz-adv-x="1093" d="M109 709q0 184 22.5 315t75.5 229q55 102 158 148q106 47 260 47q84 0 182 -12q106 -14 149 -21l56 -10l-8 -117q-213 39 -369 39q-121 0 -205 -39q-82 -37 -121 -123q-40 -86 -55 -190q-14 -98 -14 -266q0 -135 8 -215q10 -90 33 -166q25 -78 67 -125q41 -45 117 -74 q68 -27 172 -27q70 0 151 9q92 9 154 18l62 10l6 -114q-219 -45 -385 -45q-154 0 -260 47q-100 45 -158 145q-53 96 -76 225q-22 132 -22 312zM274 1911h148l180 -172l180 172h148l-273 -269h-108z" />
<glyph unicode="&#x10d;" horiz-adv-x="892" d="M111 530q0 276 96 396q95 117 325 116q39 0 107 -6q63 -6 113 -12l47 -6l-4 -109q-164 18 -242 19q-182 0 -249.5 -86t-67.5 -312q0 -244 63 -342q61 -94 254 -94l244 19l6 -109q-184 -25 -273 -24q-246 0 -331 120q-88 123 -88 430zM186 1509h138l165 -182l164 182h140 l-254 -290h-101z" />
<glyph unicode="&#x10e;" horiz-adv-x="1320" d="M195 0v1427h514q508 0 508 -692q0 -735 -508 -735h-514zM285 1911h147l180 -172l181 172h147l-272 -269h-109zM319 119h390q109 0 184.5 51t116.5 145q37 88 57 195q18 100 18 225q0 573 -376 574h-390v-1190z" />
<glyph unicode="&#x10f;" horiz-adv-x="1478" d="M111 504q0 274 98 407q98 131 330 131q101 0 258 -24v416h123v-1434h-123v74q-162 -94 -328 -94q-53 0 -104.5 10t-96.5 41q-49 33 -82 88q-31 49 -53 153q-22 103 -22 232zM233 500q0 -131 21 -213q23 -88 59 -125q41 -41 78 -55.5t90 -14.5q63 0 148 23q61 16 123 45 l45 20v729q-236 23 -254 23q-174 0 -242 -104.5t-68 -327.5zM1192 963v464h119v-464h-119z" />
<glyph unicode="&#x110;" horiz-adv-x="1320" d="M47 655v119h148v653h514q508 0 508 -692q0 -735 -508 -735h-514v655h-148zM319 119h390q109 0 184.5 51t116.5 145q37 88 57 195q18 100 18 225q0 573 -376 574h-390v-535h338v-119h-338v-536z" />
<glyph unicode="&#x111;" horiz-adv-x="1103" d="M111 504q0 274 98 407q98 131 330 131q101 0 258 -24v256h-381v108h381v52h123v-52h73v-108h-73v-1274h-123v74q-162 -94 -328 -94q-53 0 -104.5 10t-96.5 41q-49 33 -82 88q-31 49 -53 153q-22 103 -22 232zM233 500q0 -131 21 -213q23 -88 59 -125q41 -41 78 -55.5 t90 -14.5q63 0 148 23q61 16 123 45l45 20v729q-236 23 -254 23q-174 0 -242 -104.5t-68 -327.5z" />
<glyph unicode="&#x112;" horiz-adv-x="1159" d="M195 0v1427h852v-118h-728v-523h605v-118h-605v-549h728v-119h-852zM307 1688v108h619v-108h-619z" />
<glyph unicode="&#x113;" horiz-adv-x="1036" d="M111 508q0 535 421 534q201 0 304 -116q100 -115 100 -367l-4 -98h-696q0 -190 63 -279q66 -90 221 -90q96 0 160 4q18 2 74.5 5t81.5 5l59 5l4 -103q-240 -29 -391 -28q-221 2 -309 131q-88 127 -88 397zM236 563h577q0 203 -65.5 287t-215.5 84q-296 0 -296 -371z M246 1305v108h577v-108h-577z" />
<glyph unicode="&#x114;" horiz-adv-x="1159" d="M195 0v1427h852v-118h-728v-523h605v-118h-605v-549h728v-119h-852zM330 1894h125q2 -70 55 -112q49 -41 127 -41q77 0 129 43q49 41 53 110h125q-4 -119 -88 -188q-88 -72 -219 -72t-219 72q-84 69 -88 188z" />
<glyph unicode="&#x115;" horiz-adv-x="1036" d="M111 508q0 535 421 534q201 0 304 -116q100 -115 100 -367l-4 -98h-696q0 -190 63 -279q66 -90 221 -90q96 0 160 4q18 2 74.5 5t81.5 5l59 5l4 -103q-240 -29 -391 -28q-221 2 -309 131q-88 127 -88 397zM221 1493h125q4 -78 51 -123q51 -47 135 -47t136 47 q47 45 51 123h125q-2 -125 -88 -203q-84 -78 -224 -78q-141 0 -225 78q-83 77 -86 203zM236 563h577q0 203 -65.5 287t-215.5 84q-296 0 -296 -371z" />
<glyph unicode="&#x116;" horiz-adv-x="1159" d="M195 0v1427h852v-118h-728v-523h605v-118h-605v-549h728v-119h-852zM559 1696v153h123v-153h-123z" />
<glyph unicode="&#x117;" horiz-adv-x="1036" d="M111 508q0 535 421 534q201 0 304 -116q100 -115 100 -367l-4 -98h-696q0 -190 63 -279q66 -90 221 -90q96 0 160 4q18 2 74.5 5t81.5 5l59 5l4 -103q-240 -29 -391 -28q-221 2 -309 131q-88 127 -88 397zM236 563h577q0 203 -65.5 287t-215.5 84q-296 0 -296 -371z M457 1276v154h123v-154h-123z" />
<glyph unicode="&#x118;" horiz-adv-x="1159" d="M195 0v1427h852v-118h-728v-523h605v-118h-605v-549h728v-119h-58q-20 -14 -86 -96q-63 -78 -63 -121q0 -39 24 -64q27 -27 60 -26l104 12l12 -104q-82 -18 -149 -19q-76 0 -127 47t-51 127q0 55 51 129q47 68 100 115h-669z" />
<glyph unicode="&#x119;" horiz-adv-x="1036" d="M111 508q0 535 421 534q201 0 304 -116q100 -115 100 -367l-4 -98h-696q0 -188 65.5 -278.5t218.5 -90.5q96 0 160 4q18 2 74.5 5t81.5 5l59 5l4 -103l-43 -6l-41 -41q-35 -35 -71.5 -90t-36.5 -86q0 -39 24 -64q27 -27 60 -26l104 12l12 -104q-84 -18 -149 -19 q-76 0 -127 47t-51 127q0 96 139 232q-129 -10 -211 -10q-221 2 -309 131q-88 127 -88 397zM236 563h577q0 203 -65.5 287t-215.5 84q-296 0 -296 -371z" />
<glyph unicode="&#x11a;" horiz-adv-x="1159" d="M195 0v1427h852v-118h-728v-523h605v-118h-605v-549h728v-119h-852zM311 1919h148l180 -172l180 172h148l-273 -268h-108z" />
<glyph unicode="&#x11b;" horiz-adv-x="1036" d="M111 508q0 535 421 534q201 0 304 -116q100 -115 100 -367l-4 -98h-696q0 -190 63 -279q66 -90 221 -90q96 0 160 4q18 2 74.5 5t81.5 5l59 5l4 -103q-240 -29 -391 -28q-221 2 -309 131q-88 127 -88 397zM215 1509h137l166 -182l164 182h139l-254 -290h-100zM236 563 h577q0 203 -65.5 287t-215.5 84q-296 0 -296 -371z" />
<glyph unicode="&#x11c;" horiz-adv-x="1249" d="M113 711q0 373 118.5 555t423.5 182q211 0 459 -53l-6 -115q-260 47 -442 47q-248 0 -334 -147q-88 -152 -88 -469q0 -313 88 -465q84 -145 332 -146q66 0 137 9q113 12 133 16l55 8v471h-262v117h387v-690q-287 -51 -457 -51q-303 0 -423.5 182t-120.5 549zM324 1636 l274 269h109l272 -269h-145l-181 170l-180 -170h-149z" />
<glyph unicode="&#x11d;" horiz-adv-x="1046" d="M102 -170q0 84 37 137q39 55 129 121q-51 33 -51 139q0 33 66 160q-166 72 -166 309q0 348 368 348q98 0 215 -26l295 6v-109h-198q70 -70 69 -219q0 -188 -92 -266q-90 -76 -295 -76q-63 0 -104 8q-41 -104 -41 -126q0 -68 41 -84q43 -16 219 -17q217 0 301 -59.5 t84 -237.5q0 -166 -113 -248q-111 -80 -336 -79q-244 0 -337 69q-91 66 -91 250zM221 1219l254 290h98l254 -290h-139l-162 184l-166 -184h-139zM225 -162q0 -125 62 -170q63 -47 245 -47q168 0 244 49t76 164q0 125 -55 158q-57 35 -211 35l-232 8q-74 -49 -102 -92 q-27 -39 -27 -105zM240 696q0 -123 53 -180q51 -55 186 -55q141 0 201 51q61 52 61 184q0 141 -55 190.5t-203 49.5q-125 0 -184 -53.5t-59 -186.5z" />
<glyph unicode="&#x11e;" horiz-adv-x="1249" d="M113 711q0 373 118.5 555t423.5 182q211 0 459 -53l-6 -115q-260 47 -442 47q-248 0 -334 -147q-88 -152 -88 -469q0 -313 88 -465q84 -145 332 -146q66 0 137 9q113 12 133 16l55 8v471h-262v117h387v-690q-287 -51 -457 -51q-303 0 -423.5 182t-120.5 549zM358 1894 h125q4 -72 53.5 -112.5t129.5 -40.5q77 0 129 43q49 41 53 110h125q-4 -119 -88 -188q-88 -72 -219 -72t-220 72q-84 69 -88 188z" />
<glyph unicode="&#x11f;" horiz-adv-x="1046" d="M102 -170q0 84 37 137q39 55 129 121q-51 33 -51 139q0 33 66 160q-166 72 -166 309q0 348 368 348q98 0 215 -26l295 6v-109h-198q70 -70 69 -219q0 -188 -92 -266q-90 -76 -295 -76q-63 0 -104 8q-41 -104 -41 -126q0 -68 41 -84q43 -16 219 -17q217 0 301 -59.5 t84 -237.5q0 -166 -113 -248q-111 -80 -336 -79q-244 0 -337 69q-91 66 -91 250zM213 1493h125q4 -78 51 -123q51 -47 135 -47t135 47q47 45 52 123h125q-3 -126 -86 -203q-84 -78 -225.5 -78t-225.5 78q-83 77 -86 203zM225 -162q0 -125 62 -170q63 -47 245 -47 q168 0 244 49t76 164q0 125 -55 158q-57 35 -211 35l-232 8q-74 -49 -102 -92q-27 -39 -27 -105zM240 696q0 -123 53 -180q51 -55 186 -55q141 0 201 51q61 52 61 184q0 141 -55 190.5t-203 49.5q-125 0 -184 -53.5t-59 -186.5z" />
<glyph unicode="&#x120;" horiz-adv-x="1249" d="M113 711q0 373 118.5 555t423.5 182q211 0 459 -53l-6 -115q-260 47 -442 47q-248 0 -334 -147q-88 -152 -88 -469q0 -313 88 -465q84 -145 332 -146q66 0 137 9q113 12 133 16l55 8v471h-262v117h387v-690q-287 -51 -457 -51q-303 0 -423.5 182t-120.5 549zM569 1700 v153h123v-153h-123z" />
<glyph unicode="&#x121;" horiz-adv-x="1046" d="M102 -170q0 84 37 137q39 55 129 121q-51 33 -51 139q0 33 66 160q-166 72 -166 309q0 348 368 348q98 0 215 -26l295 6v-109h-198q70 -70 69 -219q0 -188 -92 -266q-90 -76 -295 -76q-63 0 -104 8q-41 -104 -41 -126q0 -68 41 -84q43 -16 219 -17q217 0 301 -59.5 t84 -237.5q0 -166 -113 -248q-111 -80 -336 -79q-244 0 -337 69q-91 66 -91 250zM225 -162q0 -125 62 -170q63 -47 245 -47q168 0 244 49t76 164q0 125 -55 158q-57 35 -211 35l-232 8q-74 -49 -102 -92q-27 -39 -27 -105zM240 696q0 -123 53 -180q51 -55 186 -55 q141 0 201 51q61 52 61 184q0 141 -55 190.5t-203 49.5q-125 0 -184 -53.5t-59 -186.5zM463 1276v154h123v-154h-123z" />
<glyph unicode="&#x122;" horiz-adv-x="1249" d="M113 711q0 373 118.5 555t423.5 182q211 0 459 -53l-6 -115q-260 47 -442 47q-248 0 -334 -147q-88 -152 -88 -469q0 -313 88 -465q84 -145 332 -146q66 0 137 9q113 12 133 16l55 8v471h-262v117h387v-690q-287 -51 -457 -51q-303 0 -423.5 182t-120.5 549zM524 -569 l82 409h123l-100 -409h-105z" />
<glyph unicode="&#x123;" horiz-adv-x="1046" d="M102 -170q0 84 37 137q39 55 129 121q-51 33 -51 139q0 33 66 160q-166 72 -166 309q0 348 368 348q98 0 215 -26l295 6v-109h-198q70 -70 69 -219q0 -188 -92 -266q-90 -76 -295 -76q-63 0 -104 8q-41 -104 -41 -126q0 -68 41 -84q43 -16 219 -17q217 0 301 -59.5 t84 -237.5q0 -166 -113 -248q-111 -80 -336 -79q-244 0 -337 69q-91 66 -91 250zM225 -162q0 -125 62 -170q63 -47 245 -47q168 0 244 49t76 164q0 125 -55 158q-57 35 -211 35l-232 8q-74 -49 -102 -92q-27 -39 -27 -105zM240 696q0 -123 53 -180q51 -55 186 -55 q141 0 201 51q61 52 61 184q0 141 -55 190.5t-203 49.5q-125 0 -184 -53.5t-59 -186.5zM399 1208l99 412h106l-82 -412h-123z" />
<glyph unicode="&#x124;" horiz-adv-x="1406" d="M195 0v1427h124v-649h773v649h125v-1427h-125v659h-773v-659h-124zM379 1634l274 269h109l272 -269h-145l-180 170l-181 -170h-149z" />
<glyph unicode="&#x125;" horiz-adv-x="1155" d="M188 0v1509h123v-538q178 72 332 71q207 0 275 -108q68 -106 67 -402v-532h-123v530q0 229 -45 316q-43 84 -188 84q-152 0 -318 -68v-862h-123zM274 1597l254 291h99l254 -291h-140l-161 185l-166 -185h-140z" />
<glyph unicode="&#x126;" horiz-adv-x="1406" d="M35 1051v108h160v268h124v-268h773v268h125v-268h178v-108h-178v-1051h-125v659h-773v-659h-124v1051h-160zM319 778h773v273h-773v-273z" />
<glyph unicode="&#x127;" horiz-adv-x="1155" d="M55 1212v109h133v188h123v-188h322v-109h-322v-241q178 72 332 71q207 0 275 -108q68 -106 67 -402v-532h-123v530q0 229 -45 316q-43 84 -188 84q-152 0 -318 -68v-862h-123v1212h-133z" />
<glyph unicode="&#x128;" horiz-adv-x="487" d="M-98 1763q115 121 192 121q49 0 178 -59.5t152 -59.5q18 0 55 25q49 33 70 49l29 25l30 -97q-109 -117 -182 -116q-49 0 -174 61q-121 59 -156 60q-22 0 -61 -25q-23 -14 -72 -53l-31 -27zM182 0v1427h125v-1427h-125z" />
<glyph unicode="&#x129;" horiz-adv-x="536" d="M-57 1378q102 104 180 105q51 0 159.5 -51.5t141.5 -51.5q18 0 51 21l62 41l24 20l29 -96q-92 -98 -168 -98q-45 0 -158 53q-109 51 -143 51q-43 0 -150 -90zM207 0v1024h123v-1024h-123z" />
<glyph unicode="&#x12a;" horiz-adv-x="487" d="M-63 1710v109h618v-109h-618zM182 0v1427h125v-1427h-125z" />
<glyph unicode="&#x12b;" horiz-adv-x="536" d="M-20 1305v108h577v-108h-577zM207 0v1024h123v-1024h-123z" />
<glyph unicode="&#x12c;" horiz-adv-x="487" d="M-63 1894h124q4 -72 53.5 -112.5t129.5 -40.5t131 43q49 41 53 110h125q-4 -117 -90 -188q-88 -72 -219 -72q-129 0 -217 72q-86 71 -90 188zM182 0v1427h125v-1427h-125z" />
<glyph unicode="&#x12d;" horiz-adv-x="536" d="M-41 1493h125q4 -78 51 -123q51 -47 135 -47t136 47q47 45 51 123h125q-2 -125 -88 -203q-84 -78 -224 -78q-141 0 -225 78q-83 77 -86 203zM207 0v1024h123v-1024h-123z" />
<glyph unicode="&#x12e;" horiz-adv-x="487" d="M29 -244q0 104 153 244v1427h125v-1427h-2q-20 -14 -86 -96q-63 -78 -63 -121q0 -39 24 -64q27 -27 60 -26l104 12l12 -104q-82 -18 -149 -19q-76 0 -127 47t-51 127z" />
<glyph unicode="&#x12f;" horiz-adv-x="464" d="M-186 0v1024h123v-1024h-123zM-186 1280v154h123v-154h-123zM16 -244q0 104 158 250q2 0 10 8l111 -12q-152 -152 -152 -219q0 -41 23 -64q27 -27 61 -26l105 12l12 -104q-82 -18 -149 -19q-78 0 -129 47q-50 47 -50 127z" />
<glyph unicode="&#x130;" horiz-adv-x="487" d="M182 0v1427h125v-1427h-125zM182 1696v153h123v-153h-123z" />
<glyph unicode="&#x131;" horiz-adv-x="532" d="M207 0v1024h123v-1024h-123z" />
<glyph unicode="&#x134;" horiz-adv-x="624" d="M16 1634l275 269h108l273 -269h-146l-180 170l-180 -170h-150zM70 -31q68 0 88 2q41 4 63 11q34 9 49 24q16 16 29 47q10 27 14 74q4 57 4 113v1190h127v-605q0 -143 1 -344.5t1 -261.5q0 -80 -10 -147q-10 -63 -30.5 -102.5t-47.5 -65.5q-18 -18 -75 -33 q-43 -10 -95 -14q-57 -4 -118 -4v116z" />
<glyph unicode="&#x135;" horiz-adv-x="493" d="M-63 -358q168 96 215 161q49 68 49 209v1012h123v-1014q0 -181 -68 -276q-66 -92 -268 -197zM-45 1219l254 290h98l254 -290h-139l-162 184l-166 -184h-139z" />
<glyph unicode="&#x136;" horiz-adv-x="1218" d="M195 0v1427h124v-667l244 4l395 663h148l-430 -714l457 -713h-152l-414 643l-248 -4v-639h-124zM502 -569l82 409h123l-101 -409h-104z" />
<glyph unicode="&#x137;" horiz-adv-x="1005" d="M188 0v1479h123v-873l170 6l332 412h139l-360 -469l364 -555h-141l-332 492l-172 -7v-485h-123zM387 -569l82 409h123l-100 -409h-105z" />
<glyph unicode="&#x139;" horiz-adv-x="1060" d="M195 0v1427h124v-1306h652v-121h-776zM297 1716l426 195l47 -113l-430 -182z" />
<glyph unicode="&#x13a;" horiz-adv-x="481" d="M6 1741l426 194l47 -112l-430 -183zM180 0v1479h123v-1479h-123z" />
<glyph unicode="&#x13b;" horiz-adv-x="1060" d="M195 0v1427h124v-1306h652v-121h-776zM430 -569l82 409h123l-100 -409h-105z" />
<glyph unicode="&#x13c;" horiz-adv-x="481" d="M94 -569l82 409h123l-100 -409h-105zM180 0v1479h123v-1479h-123z" />
<glyph unicode="&#x13d;" horiz-adv-x="1060" d="M195 0v1427h124v-1306h652v-121h-776zM784 963v464h119v-464h-119z" />
<glyph unicode="&#x13e;" horiz-adv-x="854" d="M180 0v1479h123v-1479h-123zM569 963v464h119v-464h-119z" />
<glyph unicode="&#x141;" horiz-adv-x="1060" d="M-12 584l207 145v698h124v-612l373 262l64 -86l-437 -307v-563h652v-121h-776v598l-144 -100z" />
<glyph unicode="&#x142;" horiz-adv-x="540" d="M2 588l207 145v746h123v-660l157 111l62 -88l-219 -154v-688h-123v602l-146 -102z" />
<glyph unicode="&#x143;" horiz-adv-x="1411" d="M195 0v1427h241l608 -1286h50v1286h127v-1427h-240l-614 1286h-48v-1286h-124zM469 1716l426 195l47 -113l-430 -182z" />
<glyph unicode="&#x144;" horiz-adv-x="1165" d="M188 0v1024h123v-74q175 92 332 92q207 0 275 -108q68 -106 67 -402v-532h-121v530q0 229 -45 316q-43 84 -190 84q-152 0 -318 -86v-844h-123zM346 1327l426 195l47 -113l-430 -182z" />
<glyph unicode="&#x145;" horiz-adv-x="1411" d="M195 0v1427h241l608 -1286h50v1286h127v-1427h-240l-614 1286h-48v-1286h-124zM604 -569l82 409h123l-100 -409h-105z" />
<glyph unicode="&#x146;" horiz-adv-x="1165" d="M188 0v1024h123v-74q175 92 332 92q207 0 275 -108q68 -106 67 -402v-532h-121v530q0 229 -45 316q-43 84 -190 84q-152 0 -318 -86v-844h-123zM467 -569l82 409h123l-101 -409h-104z" />
<glyph unicode="&#x147;" horiz-adv-x="1411" d="M195 0v1427h241l608 -1286h50v1286h127v-1427h-240l-614 1286h-48v-1286h-124zM379 1903h147l181 -172l180 172h147l-272 -269h-109z" />
<glyph unicode="&#x148;" horiz-adv-x="1165" d="M188 0v1024h123v-74q175 92 332 92q207 0 275 -108q68 -106 67 -402v-532h-121v530q0 229 -45 316q-43 84 -190 84q-152 0 -318 -86v-844h-123zM281 1509h137l166 -182l164 182h139l-254 -290h-101z" />
<glyph unicode="&#x14a;" horiz-adv-x="1411" d="M195 0v1427h241l608 -1286h50v1286h127v-225q0 -59 1 -260t1 -344v-606q0 -92 -9 -148q-8 -57 -32 -102q-16 -31 -49 -64q-25 -25 -74 -36q-43 -10 -92 -15q-29 -2 -121 -2v117q100 0 125 4q39 6 71.5 30.5t42.5 76.5q8 43 9 147h-113l-614 1286h-48v-1286h-124z" />
<glyph unicode="&#x14b;" horiz-adv-x="1165" d="M188 0v1024h123v-74q180 92 336 92q199 0 271 -114q70 -113 69 -396v-540q0 -184 -61 -275q-63 -92 -258 -198l-54 104q157 92 203 160q47 70 47 207v540q0 223 -45 312q-47 90 -186 90q-74 0 -150 -21q-72 -18 -127 -45l-45 -20v-846h-123z" />
<glyph unicode="&#x14c;" horiz-adv-x="1335" d="M113 707q0 373 120 559q119 182 435 182q313 0 436 -182q121 -178 121 -559q0 -385 -119 -555q-119 -172 -438 -172q-313 0 -434 176t-121 551zM244 707q0 -160 18 -265q20 -115 62 -186q47 -82 129 -119q83 -37 215 -37q254 0 340 138q86 139 86 469q0 317 -90.5 468.5 t-335.5 151.5q-248 0 -336 -149t-88 -471zM354 1704v108h619v-108h-619z" />
<glyph unicode="&#x14d;" horiz-adv-x="1077" d="M111 528q0 273 98 394t334 120q223 0 325 -124q100 -121 101 -392q0 -289 -90 -420q-88 -127 -336 -126q-246 0 -340 124q-92 123 -92 424zM236 528q0 -248 59 -344q57 -94 248 -94q188 0 243.5 98.5t55.5 337.5q0 215 -72 312q-70 94 -227 94q-178 0 -242 -86 q-65 -89 -65 -318zM250 1305v108h577v-108h-577z" />
<glyph unicode="&#x14e;" horiz-adv-x="1335" d="M113 707q0 373 120 559q119 182 435 182q313 0 436 -182q121 -178 121 -559q0 -385 -119 -555q-119 -172 -438 -172q-313 0 -434 176t-121 551zM244 707q0 -160 18 -265q20 -115 62 -186q47 -82 129 -119q83 -37 215 -37q254 0 340 138q86 139 86 469q0 317 -90.5 468.5 t-335.5 151.5q-248 0 -336 -149t-88 -471zM360 1894h125q4 -72 53.5 -112.5t129.5 -40.5q78 0 131 43q49 41 53 110h125q-4 -117 -90 -188q-88 -72 -219 -72q-129 0 -217 72q-87 71 -91 188z" />
<glyph unicode="&#x14f;" horiz-adv-x="1077" d="M111 528q0 273 98 394t334 120q223 0 325 -124q100 -121 101 -392q0 -289 -90 -420q-88 -127 -336 -126q-246 0 -340 124q-92 123 -92 424zM227 1493h125q2 -76 53.5 -123t133.5 -47q90 0 137 45q45 43 49 125h125q-3 -126 -86 -203q-84 -78 -225 -78q-135 0 -224 78 q-84 76 -88 203zM236 528q0 -248 59 -344q57 -94 248 -94q188 0 243.5 98.5t55.5 337.5q0 215 -72 312q-70 94 -227 94q-178 0 -242 -86q-65 -89 -65 -318z" />
<glyph unicode="&#x150;" horiz-adv-x="1335" d="M113 707q0 373 120 559q119 182 435 182q313 0 436 -182q121 -178 121 -559q0 -385 -119 -555q-119 -172 -438 -172q-313 0 -434 176t-121 551zM244 707q0 -160 18 -265q20 -115 62 -186q47 -82 129 -119q83 -37 215 -37q254 0 340 138q86 139 86 469q0 317 -90.5 468.5 t-335.5 151.5q-248 0 -336 -149t-88 -471zM279 1659l329 235l86 -69l-334 -232zM684 1659l328 233l88 -67l-336 -234z" />
<glyph unicode="&#x151;" horiz-adv-x="1077" d="M111 528q0 273 98 394t334 120q223 0 325 -124q100 -121 101 -392q0 -289 -90 -420q-88 -127 -336 -126q-246 0 -340 124q-92 123 -92 424zM209 1276l311 258l84 -76l-315 -256zM236 528q0 -248 59 -344q57 -94 248 -94q188 0 243.5 98.5t55.5 337.5q0 215 -72 312 q-70 94 -227 94q-178 0 -242 -86q-65 -89 -65 -318zM598 1276l311 258l82 -76l-313 -256z" />
<glyph unicode="&#x152;" horiz-adv-x="1931" d="M123 707q0 387 119 563q119 178 426 178q180 0 301 -21h837v-122h-712v-512h589v-123h-589v-547h712v-125h-835q-188 -18 -303 -18q-315 0 -430 174t-115 553zM254 709q0 -158 16 -269q14 -102 64 -186q46 -80 129 -117q78 -35 217 -35q119 0 289 17v1186 q-274 23 -291 22q-246 0 -336 -145q-88 -143 -88 -473z" />
<glyph unicode="&#x153;" horiz-adv-x="1792" d="M121 528q0 273 98 394t336 120q283 0 365 -211q94 211 358 211q201 0 303 -116q100 -115 100 -367l-6 -98h-694q0 -190 63 -279q66 -90 222 -90q96 0 159 4q23 2 77 5t77 5l61 5l5 -103q-240 -29 -392 -28q-252 0 -338 188q-39 -96 -127 -143q-84 -45 -233 -45 q-248 0 -342 124q-92 123 -92 424zM248 528q0 -248 59 -344q57 -94 248 -94q182 0 242 98q57 96 57 338q0 217 -69.5 311.5t-229.5 94.5q-178 0 -242 -86q-65 -89 -65 -318zM979 563h577q0 199 -65 287q-63 84 -213 84q-299 0 -299 -371z" />
<glyph unicode="&#x154;" horiz-adv-x="1280" d="M195 0v1427h520q225 0 333.5 -102t108.5 -321q0 -344 -274 -416l293 -588h-142l-280 559h-435v-559h-124zM319 678h396q170 0 241 84q70 82 70 242q0 158 -76 231q-78 74 -235 74h-396v-631zM403 1716l426 195l48 -113l-431 -182z" />
<glyph unicode="&#x155;" horiz-adv-x="724" d="M158 1327l426 195l47 -113l-430 -182zM188 0v1024h123v-145q23 18 51 36q31 20 134 68q98 46 190 61v-124q-84 -14 -180 -56q-94 -39 -146 -69l-49 -31v-764h-123z" />
<glyph unicode="&#x156;" horiz-adv-x="1280" d="M195 0v1427h520q225 0 333.5 -102t108.5 -321q0 -344 -274 -416l293 -588h-142l-280 559h-435v-559h-124zM319 678h396q170 0 241 84q70 82 70 242q0 158 -76 231q-78 74 -235 74h-396v-631zM537 -569l81 409h123l-100 -409h-104z" />
<glyph unicode="&#x157;" horiz-adv-x="724" d="M102 -569l82 409h123l-100 -409h-105zM188 0v1024h123v-145q23 18 51 36q31 20 134 68q98 46 190 61v-124q-84 -14 -180 -56q-94 -39 -146 -69l-49 -31v-764h-123z" />
<glyph unicode="&#x158;" horiz-adv-x="1280" d="M195 0v1427h520q225 0 333.5 -102t108.5 -321q0 -344 -274 -416l293 -588h-142l-280 559h-435v-559h-124zM313 1903h148l180 -172l180 172h148l-273 -269h-108zM319 678h396q170 0 241 84q70 82 70 242q0 158 -76 231q-78 74 -235 74h-396v-631z" />
<glyph unicode="&#x159;" horiz-adv-x="724" d="M92 1509h137l166 -182l164 182h139l-254 -290h-100zM188 0v1024h123v-145q23 18 51 36q31 20 134 68q98 46 190 61v-124q-84 -14 -180 -56q-94 -39 -146 -69l-49 -31v-764h-123z" />
<glyph unicode="&#x15a;" horiz-adv-x="1091" d="M96 1077q0 375 459 375q164 0 412 -39l-11 -117q-291 35 -401 35q-330 0 -330 -250q0 -147 74 -198.5t287 -91.5q229 -47 317 -121q94 -78 94 -256q0 -225 -114.5 -327.5t-333.5 -102.5q-164 0 -436 39l12 116q285 -35 422 -35q164 0 241 70q80 71 80 234q0 127 -71 180 q-71 52 -258 86q-92 16 -193 47q-70 20 -133 65q-61 43 -90 115q-27 67 -27 176zM315 1716l426 195l47 -113l-430 -182z" />
<glyph unicode="&#x15b;" horiz-adv-x="993" d="M117 754q0 154 104.5 221t255.5 67q59 0 162 -10q119 -12 145 -16l58 -8l-4 -109q-215 33 -355 33q-242 0 -241 -174q0 -80 53 -115q51 -33 213 -57q205 -33 291 -92q78 -53 78 -197q0 -170 -101 -244t-295 -73q-125 0 -352 36l8 109q238 -35 334 -35q143 0 211 43 q70 45 70 158q0 88 -54 121q-55 34 -227 61q-200 31 -276 86q-78 56 -78 195zM262 1327l426 195l47 -113l-430 -182z" />
<glyph unicode="&#x15c;" horiz-adv-x="1091" d="M96 1077q0 375 459 375q164 0 412 -39l-11 -117q-291 35 -401 35q-330 0 -330 -250q0 -147 74 -198.5t287 -91.5q229 -47 317 -121q94 -78 94 -256q0 -225 -114.5 -327.5t-333.5 -102.5q-164 0 -436 39l12 116q285 -35 422 -35q164 0 241 70q80 71 80 234q0 127 -71 180 q-71 52 -258 86q-92 16 -193 47q-70 20 -133 65q-61 43 -90 115q-27 67 -27 176zM225 1636l275 269h108l273 -269h-146l-180 170l-180 -170h-150z" />
<glyph unicode="&#x15d;" horiz-adv-x="993" d="M117 754q0 154 104.5 221t255.5 67q59 0 162 -10q119 -12 145 -16l58 -8l-4 -109q-215 33 -355 33q-242 0 -241 -174q0 -80 53 -115q51 -33 213 -57q205 -33 291 -92q78 -53 78 -197q0 -170 -101 -244t-295 -73q-125 0 -352 36l8 109q238 -35 334 -35q143 0 211 43 q70 45 70 158q0 88 -54 121q-55 34 -227 61q-200 31 -276 86q-78 56 -78 195zM195 1219l254 290h98l254 -290h-139l-162 184l-166 -184h-139z" />
<glyph unicode="&#x15e;" horiz-adv-x="1091" d="M96 1077q0 375 459 375q164 0 412 -39l-11 -117q-291 35 -401 35q-330 0 -330 -250q0 -147 74 -198.5t287 -91.5q229 -47 317 -121q94 -78 94 -256q0 -213 -102 -316q-104 -104 -301 -112v-92q120 0 172 -31q51 -31 51 -123q0 -172 -182 -172l-172 12l4 82q82 -6 145 -6 q92 0 93 84q0 76 -93 76h-96v168q-71 3 -172 12q-141 12 -166 16l-65 11l12 116q285 -35 422 -35q164 0 241 70q80 71 80 234q0 127 -71 180q-71 52 -258 86q-92 16 -193 47q-70 20 -133 65q-61 43 -90 115q-27 67 -27 176z" />
<glyph unicode="&#x15f;" horiz-adv-x="993" d="M117 754q0 154 104.5 221t255.5 67q59 0 162 -10q119 -12 145 -16l58 -8l-4 -109q-215 33 -355 33q-242 0 -241 -174q0 -80 53 -115q51 -33 213 -57q205 -33 291 -92q78 -53 78 -197q0 -166 -91 -238q-92 -74 -270 -79v-86q119 0 170 -31q53 -31 53 -123 q0 -172 -182 -172l-172 12l4 82q82 -6 146 -6q92 0 92 84q0 76 -92 76h-97v166q-119 6 -309 34l8 109q238 -35 334 -35q143 0 211 43q70 45 70 158q0 88 -54 121q-55 34 -227 61q-200 31 -276 86q-78 56 -78 195z" />
<glyph unicode="&#x160;" horiz-adv-x="1091" d="M96 1077q0 375 459 375q164 0 412 -39l-11 -117q-291 35 -401 35q-330 0 -330 -250q0 -147 74 -198.5t287 -91.5q229 -47 317 -121q94 -78 94 -256q0 -225 -114.5 -327.5t-333.5 -102.5q-164 0 -436 39l12 116q285 -35 422 -35q164 0 241 70q80 71 80 234q0 127 -71 180 q-71 52 -258 86q-92 16 -193 47q-70 20 -133 65q-61 43 -90 115q-27 67 -27 176zM231 1911h148l180 -172l180 172h148l-273 -269h-108z" />
<glyph unicode="&#x161;" horiz-adv-x="993" d="M117 754q0 154 104.5 221t255.5 67q59 0 162 -10q119 -12 145 -16l58 -8l-4 -109q-215 33 -355 33q-242 0 -241 -174q0 -80 53 -115q51 -33 213 -57q205 -33 291 -92q78 -53 78 -197q0 -170 -101 -244t-295 -73q-125 0 -352 36l8 109q238 -35 334 -35q143 0 211 43 q70 45 70 158q0 88 -54 121q-55 34 -227 61q-200 31 -276 86q-78 56 -78 195zM211 1509h137l166 -182l164 182h139l-254 -290h-100z" />
<glyph unicode="&#x162;" horiz-adv-x="1011" d="M-6 1309v118h1024v-118h-447v-1309h-125v1309h-452zM403 -569l82 409h123l-100 -409h-105z" />
<glyph unicode="&#x163;" horiz-adv-x="751" d="M61 911v113h152v322h123v-322h342v-113h-342v-497q0 -201 26 -260q28 -61 136 -62l190 14l6 -108q-129 -20 -207 -21q-154 0 -215 76q-59 74 -59 295v563h-152zM270 -569l82 409h123l-100 -409h-105z" />
<glyph unicode="&#x164;" horiz-adv-x="1011" d="M-6 1309v118h1024v-118h-447v-1309h-125v1309h-452zM180 1903h148l180 -172l180 172h148l-273 -269h-108z" />
<glyph unicode="&#x165;" horiz-adv-x="1089" d="M61 911v113h152v322h123v-322h342v-113h-342v-497q0 -201 26 -260q28 -61 136 -62l190 14l6 -108q-129 -20 -207 -21q-154 0 -215 76q-59 74 -59 295v563h-152zM836 963v464h118v-464h-118z" />
<glyph unicode="&#x166;" horiz-adv-x="1011" d="M-6 1309v118h1024v-118h-447v-561h361v-109h-361v-639h-125v639h-337v109h337v561h-452z" />
<glyph unicode="&#x167;" horiz-adv-x="751" d="M61 911v113h152v322h123v-322h342v-113h-342v-317h-123v317h-152zM80 485v109h133v-109h-133zM213 348v137h123v-71q0 -197 29 -260q29 -61 133 -62l190 14l6 -108q-129 -20 -207 -21q-154 0 -215 76q-59 74 -59 295zM336 485v109h305v-109h-305z" />
<glyph unicode="&#x168;" horiz-adv-x="1314" d="M168 418v1009h127v-1009q0 -315 354 -316q182 0 275 72q94 74 94 244v1009h125v-1009q0 -233 -123 -334q-125 -102 -371 -102q-238 0 -360 104q-121 103 -121 332zM309 1767q115 121 193 121q47 0 176 -59.5t153 -59.5q41 0 152 99l33 -94q-106 -117 -182 -117 q-47 0 -175 61q-121 59 -157 60q-45 0 -164 -107z" />
<glyph unicode="&#x169;" horiz-adv-x="1140" d="M174 489v535h121v-530q0 -236 45 -322q43 -82 190 -82q70 0 144 21q70 18 117 45l40 20v848h121v-1024h-121v72q-160 -92 -315 -92q-209 0 -276 106q-66 104 -66 403zM244 1378q100 104 180 105q53 0 161.5 -51.5t139.5 -51.5q18 0 51 21l62 41l24 20l29 -96 q-89 -98 -166 -98q-43 0 -160 53q-111 51 -143 51q-18 0 -57 -22q-23 -12 -64 -45l-27 -23z" />
<glyph unicode="&#x16a;" horiz-adv-x="1314" d="M168 418v1009h127v-1009q0 -315 354 -316q182 0 275 72q94 74 94 244v1009h125v-1009q0 -233 -123 -334q-125 -102 -371 -102q-238 0 -360 104q-121 103 -121 332zM348 1704v108h619v-108h-619z" />
<glyph unicode="&#x16b;" horiz-adv-x="1140" d="M174 489v535h121v-530q0 -236 45 -322q43 -82 190 -82q70 0 144 21q70 18 117 45l40 20v848h121v-1024h-121v72q-160 -92 -315 -92q-209 0 -276 106q-66 104 -66 403zM283 1305v108h577v-108h-577z" />
<glyph unicode="&#x16c;" horiz-adv-x="1314" d="M168 418v1009h127v-1009q0 -315 354 -316q182 0 275 72q94 74 94 244v1009h125v-1009q0 -233 -123 -334q-125 -102 -371 -102q-238 0 -360 104q-121 103 -121 332zM350 1894h125q2 -70 55 -112q49 -41 127 -41q80 0 131 43q49 41 54 110h125q-4 -117 -90 -188 q-88 -72 -220 -72q-129 0 -217 72q-86 71 -90 188z" />
<glyph unicode="&#x16d;" horiz-adv-x="1140" d="M174 489v535h121v-530q0 -236 45 -322q43 -82 190 -82q70 0 144 21q70 18 117 45l40 20v848h121v-1024h-121v72q-160 -92 -315 -92q-209 0 -276 106q-66 104 -66 403zM258 1493h125q2 -76 53 -123t133 -47q88 0 135.5 45t51.5 125h125q-3 -126 -86 -203q-84 -78 -226 -78 q-139 0 -223 78q-86 78 -88 203z" />
<glyph unicode="&#x16e;" horiz-adv-x="1314" d="M168 418v1009h127v-1009q0 -315 354 -316q182 0 275 72q94 74 94 244v1009h125v-1009q0 -233 -123 -334q-125 -102 -371 -102q-238 0 -360 104q-121 103 -121 332zM432 1734.5q0 96.5 61.5 152t163.5 55.5q100 0 164 -55.5t64 -152t-64 -151.5q-61 -53 -164 -53 q-104 0 -163 53q-62 55 -62 151.5zM537 1735q0 -51 32 -84q29 -29 88 -29q61 0 91 29q33 33 32 84q0 49 -32 82q-31 31 -91 30q-57 0 -88 -30q-32 -33 -32 -82z" />
<glyph unicode="&#x16f;" horiz-adv-x="1140" d="M174 489v535h121v-530q0 -236 45 -322q43 -82 190 -82q70 0 144 21q70 18 117 45l40 20v848h121v-1024h-121v72q-160 -92 -315 -92q-209 0 -276 106q-66 104 -66 403zM377 1325q0 86 59.5 145.5t147.5 59.5q86 0 145 -59.5t59 -145.5q0 -88 -59 -147.5t-145 -59.5 q-88 0 -147.5 59.5t-59.5 147.5zM473 1325q0 -49 33 -82t78 -33t77.5 33t32.5 82q0 47 -32.5 80t-77.5 33t-78 -33t-33 -80z" />
<glyph unicode="&#x170;" horiz-adv-x="1314" d="M168 418v1009h127v-1009q0 -315 354 -316q182 0 275 72q94 74 94 244v1009h125v-1009q0 -233 -123 -334q-125 -102 -371 -102q-238 0 -360 104q-121 103 -121 332zM309 1618l330 235l86 -69l-334 -232zM715 1616l327 235l88 -67l-335 -234z" />
<glyph unicode="&#x171;" horiz-adv-x="1140" d="M174 489v535h121v-530q0 -236 45 -322q43 -82 190 -82q70 0 144 21q70 18 117 45l40 20v848h121v-1024h-121v72q-160 -92 -315 -92q-209 0 -276 106q-66 104 -66 403zM260 1276l309 258l84 -76l-315 -256zM647 1276l311 258l84 -76l-315 -256z" />
<glyph unicode="&#x172;" horiz-adv-x="1314" d="M168 418v1009h127v-1009q0 -315 354 -316q182 0 275 72q94 74 94 244v1009h125v-1009q0 -350 -305 -418q-20 -14 -86 -96q-63 -78 -64 -121q0 -41 23 -64q27 -27 61 -26l105 12l12 -104q-82 -18 -150 -19q-78 0 -129 47q-49 47 -49 127q0 90 133 228q-10 -2 -45 -2 q-238 0 -360 104q-121 103 -121 332z" />
<glyph unicode="&#x173;" horiz-adv-x="1140" d="M174 489v535h121v-530q0 -236 45 -322q43 -82 190 -82q70 0 144 21q70 18 117 45l40 20v848h121v-1024h-2l2 2l-110 12l-11 -10v68q-160 -92 -315 -92q-209 0 -276 106q-66 104 -66 403zM674 -244q0 41 35 101q33 55 65 92q23 25 57 55v-4h119q-20 -14 -86 -96 q-63 -78 -63 -121q0 -39 24 -64q27 -27 60 -26l104 12l12 -104q-84 -18 -149 -19q-76 0 -127 47t-51 127z" />
<glyph unicode="&#x174;" horiz-adv-x="1818" d="M82 1427h127l272 -1302h68l291 1288h141l299 -1288h66l266 1302h127l-299 -1427h-252l-279 1237l-268 -1237h-252zM582 1636l274 269h109l272 -269h-145l-181 170l-180 -170h-149z" />
<glyph unicode="&#x175;" horiz-adv-x="1550" d="M63 1024h125l228 -913h28l267 893h131l264 -893h31l227 913h125l-258 -1024h-215l-242 844l-242 -844h-213zM473 1219l254 290h98l254 -290h-139l-162 184l-166 -184h-139z" />
<glyph unicode="&#x176;" horiz-adv-x="1120" d="M43 1427h141l379 -673l373 673h141l-450 -815v-612h-127v612zM233 1636l275 269h108l273 -269h-146l-180 170l-180 -170h-150z" />
<glyph unicode="&#x177;" horiz-adv-x="983" d="M57 1024h125l273 -907h73l275 907h125l-443 -1485h-123l136 461h-140zM188 1219l254 290h99l254 -290h-140l-161 184l-166 -184h-140z" />
<glyph unicode="&#x178;" horiz-adv-x="1120" d="M43 1427h141l379 -673l373 673h141l-450 -815v-612h-127v612zM287 1694v161h121v-161h-121zM702 1694v161h119v-161h-119z" />
<glyph unicode="&#x179;" horiz-adv-x="1165" d="M123 -2v174l774 1092v45h-774v118h921v-174l-774 -1093v-41h774v-121h-921zM346 1716l426 195l47 -113l-430 -182z" />
<glyph unicode="&#x17a;" horiz-adv-x="980" d="M111 0v111l612 802h-612v111h759v-111l-610 -802h610v-111h-759zM250 1327l426 195l47 -113l-430 -182z" />
<glyph unicode="&#x17b;" horiz-adv-x="1165" d="M123 -2v174l774 1092v45h-774v118h921v-174l-774 -1093v-41h774v-121h-921zM522 1696v153h121v-153h-121z" />
<glyph unicode="&#x17c;" horiz-adv-x="980" d="M111 0v111l612 802h-612v111h759v-111l-610 -802h610v-111h-759zM430 1276v154h123v-154h-123z" />
<glyph unicode="&#x17d;" horiz-adv-x="1165" d="M123 -2v174l774 1092v45h-774v118h921v-174l-774 -1093v-41h774v-121h-921zM256 1911h147l181 -172l180 172h147l-272 -269h-109z" />
<glyph unicode="&#x17e;" horiz-adv-x="980" d="M111 0v111l612 802h-612v111h759v-111l-610 -802h610v-111h-759zM168 1509h137l166 -182l164 182h139l-254 -290h-100z" />
<glyph unicode="&#x192;" d="M143 -492l2 105h15q4 0 15 -1t20 -1h47q12 0 24.5 -1t24.5 -1q8 0 21.5 -1t19.5 -1q168 0 168 258v868h-135v113h135v125q0 205 47 303q45 94 164 115q37 9 80 6l178 -9l-2 -106q-156 4 -181 4q-166 0 -165 -258v-180h311v-113h-311v-868q0 -205 -72 -285 q-74 -82 -217 -82z" />
<glyph unicode="&#x1fa;" horiz-adv-x="1234" d="M63 0l396 1380q-68 55 -68 156q0 96 61.5 151.5t164 55.5t164 -55.5t61.5 -151.5q0 -94 -62 -150l394 -1384h-127l-119 387h-623l-115 -389h-127zM336 510h563l-227 801h-107zM377 1905l426 194l47 -112l-430 -181zM494 1536q0 -90 86 -109h73q86 14 86 109q0 53 -32 84 q-31 29 -90.5 29t-90.5 -29q-32 -31 -32 -84z" />
<glyph unicode="&#x1fb;" horiz-adv-x="1062" d="M104 289q0 143 72 213q74 72 230 86l348 35v92q0 211 -197 211q-150 0 -389 -31l-8 109q236 39 401 38q160 0 236 -79q78 -82 77 -248v-535q10 -78 134 -92l-7 -106q-164 0 -231 77q-184 -80 -393 -79q-131 0 -201 79q-72 83 -72 230zM231 291q0 -100 41 -150 q43 -53 119 -53q80 0 168 18q117 25 141 33l54 19v362l-334 -31q-189 -16 -189 -198zM297 1692l426 194l47 -112l-430 -183zM309 1315q0 86 59.5 145.5t147.5 59.5q86 0 145.5 -59.5t59.5 -145.5q0 -88 -59.5 -147.5t-145.5 -59.5q-88 0 -147.5 59.5t-59.5 147.5zM406 1315 q0 -47 32 -80q35 -35 78 -35t78 35q33 33 33 80t-33 79.5t-78 32.5t-77.5 -32.5t-32.5 -79.5z" />
<glyph unicode="&#x1fc;" horiz-adv-x="1714" d="M78 0l479 1427h1174v-118h-727v-516h604v-119h-604v-555h727v-119h-852v389h-535l-133 -389h-133zM381 510h498v799h-228zM666 1716l426 195l47 -113l-430 -182z" />
<glyph unicode="&#x1fd;" horiz-adv-x="1693" d="M111 289q0 162 82 223q84 61 290 84l277 27v92q0 211 -197 211q-68 0 -166 -6q-152 -10 -159 -11l-64 -4l-4 111q227 27 397 26q219 0 279 -165q100 166 334 165q201 0 303 -116q100 -115 100 -367l-6 -98h-696q4 -193 65 -279q66 -90 221 -90q147 0 373 19l4 -103 q-240 -29 -389 -28q-203 0 -299 114l-70 -31q-190 -84 -403 -83q-272 0 -272 309zM238 291q0 -100 41 -150q43 -53 118 -53q181 0 406 86q-47 117 -47 346l-330 -31q-94 -8 -143 -57q-45 -45 -45 -141zM631 1327l426 195l47 -113l-430 -182zM881 563h577q0 199 -67.5 285 t-210.5 86q-299 0 -299 -371z" />
<glyph unicode="&#x1fe;" horiz-adv-x="1341" d="M113 707q0 373 120 559q119 182 435 182q152 0 264 -47l108 231l115 -45l-119 -250q188 -164 189 -630q0 -385 -119 -555q-119 -172 -438 -172q-135 0 -250 36l-119 -254l-113 50l123 264q-113 86 -153 235q-43 154 -43 396zM244 707q0 -384 123 -510l512 1089 q-92 41 -211 41q-248 0 -336 -149t-88 -471zM420 1716l426 195l47 -113l-430 -182zM471 131q80 -31 197 -31q254 0 340 138q86 139 86 469q0 369 -117 503z" />
<glyph unicode="&#x1ff;" horiz-adv-x="1077" d="M111 528q0 273 98 394t334 120q84 0 157 -20l88 217l89 -31l-93 -221q184 -106 185 -461q0 -289 -90 -420q-88 -127 -336 -126q-82 0 -164 16l-92 -227l-88 30l94 228q-101 52 -141 172q-41 122 -41 329zM236 528q0 -162 22 -258q20 -92 84 -133l315 778q-47 16 -114 17 q-178 0 -242 -86q-65 -89 -65 -318zM303 1327l426 195l47 -113l-430 -182zM420 102q52 -12 123 -12q188 0 243.5 98.5t55.5 337.5q0 262 -107 348z" />
<glyph unicode="&#x218;" horiz-adv-x="1091" d="M96 1077q0 375 459 375q164 0 412 -39l-11 -117q-291 35 -401 35q-330 0 -330 -250q0 -147 74 -198.5t287 -91.5q229 -47 317 -121q94 -78 94 -256q0 -225 -114.5 -327.5t-333.5 -102.5q-164 0 -436 39l12 116q285 -35 422 -35q164 0 241 70q80 71 80 234q0 127 -71 180 q-71 52 -258 86q-92 16 -193 47q-70 20 -133 65q-61 43 -90 115q-27 67 -27 176zM436 -569l82 409h123l-100 -409h-105z" />
<glyph unicode="&#x219;" horiz-adv-x="993" d="M117 754q0 154 104.5 221t255.5 67q59 0 162 -10q119 -12 145 -16l58 -8l-4 -109q-215 33 -355 33q-242 0 -241 -174q0 -80 53 -115q51 -33 213 -57q205 -33 291 -92q78 -53 78 -197q0 -170 -101 -244t-295 -73q-125 0 -352 36l8 109q238 -35 334 -35q143 0 211 43 q70 45 70 158q0 88 -54 121q-55 34 -227 61q-200 31 -276 86q-78 56 -78 195zM391 -569l82 409h123l-100 -409h-105z" />
<glyph unicode="&#x2c6;" horiz-adv-x="464" d="M-45 1219l254 290h98l254 -290h-139l-162 184l-166 -184h-139z" />
<glyph unicode="&#x2c7;" horiz-adv-x="464" d="M-41 1509h137l166 -182l164 182h139l-254 -290h-100z" />
<glyph unicode="&#x2d8;" horiz-adv-x="464" d="M-49 1493h125q4 -78 51 -123q51 -47 135 -47t135 47q47 45 52 123h124q-2 -125 -88 -203q-84 -78 -223 -78t-223 78q-86 78 -88 203z" />
<glyph unicode="&#x2d9;" horiz-adv-x="464" d="M172 1276v154h123v-154h-123z" />
<glyph unicode="&#x2da;" horiz-adv-x="464" d="M35 1325q0 86 59.5 145.5t147.5 59.5q86 0 145 -59.5t59 -145.5q0 -88 -59 -147.5t-145 -59.5q-88 0 -147.5 59.5t-59.5 147.5zM131 1325q0 -49 33 -82t78 -33t77.5 33t32.5 82q0 47 -32.5 80t-77.5 33t-78 -33t-33 -80z" />
<glyph unicode="&#x2db;" horiz-adv-x="907" d="M371 -244q0 102 157 250l11 8l110 -12q-152 -152 -151 -219q0 -39 24 -64q27 -27 60 -26l104 12l12 -104q-84 -18 -149 -19q-76 0 -127 47t-51 127z" />
<glyph unicode="&#x2dc;" horiz-adv-x="464" d="M-72 1378q100 104 181 105q53 0 161.5 -51.5t139.5 -51.5q20 0 53 21q39 25 57 41l27 20l28 -96q-92 -98 -165 -98q-43 0 -160 53q-111 51 -144 51q-18 0 -57 -22q-37 -20 -63 -45l-27 -23z" />
<glyph unicode="&#x2dd;" horiz-adv-x="464" d="M-104 1276l311 258l82 -76l-314 -256zM285 1276l309 258l84 -76l-313 -256z" />
<glyph unicode="&#x300;" horiz-adv-x="464" d="M33 1413l45 109l426 -195l-41 -96z" />
<glyph unicode="&#x301;" horiz-adv-x="464" d="M10 1327l426 195l47 -113l-430 -182z" />
<glyph unicode="&#x302;" horiz-adv-x="464" d="M-39 1219l254 290h98l254 -290h-139l-162 184l-166 -184h-139z" />
<glyph unicode="&#x303;" horiz-adv-x="464" d="M-72 1378q100 104 181 105q53 0 161.5 -51.5t139.5 -51.5q20 0 53 21q39 25 57 41l27 20l28 -96q-92 -98 -165 -98q-43 0 -160 53q-111 51 -144 51q-18 0 -57 -22q-37 -20 -63 -45l-27 -23z" />
<glyph unicode="&#x304;" horiz-adv-x="464" d="M-43 1305v108h578v-108h-578z" />
<glyph unicode="&#x306;" horiz-adv-x="464" d="M-49 1493h125q4 -78 51 -123q51 -47 135 -47t135 47q47 45 52 123h124q-2 -125 -88 -203q-84 -78 -223 -78t-223 78q-86 78 -88 203z" />
<glyph unicode="&#x307;" horiz-adv-x="464" d="M172 1276v154h123v-154h-123z" />
<glyph unicode="&#x308;" horiz-adv-x="464" d="M-16 1290v162h120v-162h-120zM387 1290v162h119v-162h-119z" />
<glyph unicode="&#x30a;" horiz-adv-x="464" d="M37 1325q0 86 59.5 145.5t147.5 59.5q86 0 145.5 -59.5t59.5 -145.5q0 -88 -59.5 -147.5t-145.5 -59.5q-88 0 -147.5 59.5t-59.5 147.5zM133 1325q0 -49 33 -82t78 -33t77.5 33t32.5 82q0 47 -32.5 80t-77.5 33t-78 -33t-33 -80z" />
<glyph unicode="&#x30b;" horiz-adv-x="464" d="M-104 1276l311 258l82 -76l-314 -256zM285 1276l309 258l84 -76l-313 -256z" />
<glyph unicode="&#x30c;" horiz-adv-x="464" d="M-49 1509h137l166 -182l164 182h139l-254 -290h-100z" />
<glyph unicode="&#x312;" horiz-adv-x="346" d="M61 1208l99 412h106l-82 -412h-123z" />
<glyph unicode="&#x315;" horiz-adv-x="294" d="M86 963v464h119v-464h-119z" />
<glyph unicode="&#x326;" horiz-adv-x="346" d="M61 -569l82 409h123l-100 -409h-105z" />
<glyph unicode="&#x327;" horiz-adv-x="1030" d="M449 -420l4 82q84 -6 145 -6q92 0 92 84q0 76 -92 76h-96v186h78v-108q120 0 172 -31q51 -31 51 -123q0 -172 -182 -172z" />
<glyph unicode="&#x328;" horiz-adv-x="907" d="M371 -244q0 102 157 250l11 8l110 -12q-152 -152 -151 -219q0 -39 24 -64q27 -27 60 -26l104 12l12 -104q-84 -18 -149 -19q-76 0 -127 47t-51 127z" />
<glyph unicode="&#x394;" d="M88 0v98l342 1268h232l344 -1270v-96h-918zM219 115h653l-303 1136h-47z" />
<glyph unicode="&#x2206;" d="M88 0v98l342 1268h232l344 -1270v-96h-918zM219 115h653l-303 1136h-47z" />
<glyph unicode="&#x3a9;" d="M59 -18v106h267q-57 92 -64 105q-45 82 -100 243q-61 178 -62 322q0 326 95 469q96 145 348 145q256 0 348 -145.5t92 -468.5q0 -137 -57 -309q-53 -158 -113 -265l-55 -96h268v-106h-397v86l24 43l56 106q29 57 69 160q25 61 53 176q25 98 25 178q0 280 -61 399 t-252 119q-78 0 -140 -22q-51 -18 -90 -62q-35 -37 -53 -106q-18 -68 -24.5 -141.5t-6.5 -186.5q0 -127 56 -293q53 -160 112 -268l58 -102v-86h-396z" />
<glyph unicode="&#x2126;" d="M59 -18v106h267q-57 92 -64 105q-45 82 -100 243q-61 178 -62 322q0 326 95 469q96 145 348 145q256 0 348 -145.5t92 -468.5q0 -137 -57 -309q-53 -158 -113 -265l-55 -96h268v-106h-397v86l24 43l56 106q29 57 69 160q25 61 53 176q25 98 25 178q0 280 -61 399 t-252 119q-78 0 -140 -22q-51 -18 -90 -62q-35 -37 -53 -106q-18 -68 -24.5 -141.5t-6.5 -186.5q0 -127 56 -293q53 -160 112 -268l58 -102v-86h-396z" />
<glyph unicode="&#x3c0;" d="M8 883v114q66 12 127 17q29 2 129 8l51 2h443q197 0 295 33v-115q-63 -25 -199 -31v-596q0 -127 39 -170q37 -39 149 -39v-112q-188 0 -249 65q-61 63 -62 256v594h-356l-58 -909h-122l57 909q-92 -4 -135 -8q-57 -6 -84 -12z" />
<glyph unicode="&#x1e80;" horiz-adv-x="1818" d="M82 1427h127l272 -1302h68l291 1288h141l299 -1288h66l266 1302h127l-299 -1427h-252l-279 1237l-268 -1237h-252zM670 1792l47 113l426 -195l-43 -98z" />
<glyph unicode="&#x1e81;" horiz-adv-x="1550" d="M63 1024h125l228 -913h28l267 893h131l264 -893h31l227 913h125l-258 -1024h-215l-242 844l-242 -844h-213zM541 1413l45 109l426 -195l-41 -96z" />
<glyph unicode="&#x1e82;" horiz-adv-x="1818" d="M82 1427h127l272 -1302h68l291 1288h141l299 -1288h66l266 1302h127l-299 -1427h-252l-279 1237l-268 -1237h-252zM690 1716l426 195l47 -113l-430 -182z" />
<glyph unicode="&#x1e83;" horiz-adv-x="1550" d="M63 1024h125l228 -913h28l267 893h131l264 -893h31l227 913h125l-258 -1024h-215l-242 844l-242 -844h-213zM539 1327l426 195l47 -113l-430 -182z" />
<glyph unicode="&#x1e84;" horiz-adv-x="1818" d="M82 1427h127l272 -1302h68l291 1288h141l299 -1288h66l266 1302h127l-299 -1427h-252l-279 1237l-268 -1237h-252zM643 1694v161h119v-161h-119zM1057 1694v161h119v-161h-119z" />
<glyph unicode="&#x1e85;" horiz-adv-x="1550" d="M63 1024h125l228 -913h28l267 893h131l264 -893h31l227 913h125l-258 -1024h-215l-242 844l-242 -844h-213zM516 1290v162h119v-162h-119zM918 1290v162h118v-162h-118z" />
<glyph unicode="&#x1eab;" horiz-adv-x="1091" d="M104 289q0 143 72 213q74 72 230 86l348 35v92q0 211 -197 211q-150 0 -389 -31l-8 109q236 39 401 38q160 0 236 -79q78 -82 77 -248v-535q10 -78 134 -92l-7 -106q-164 0 -231 77q-184 -80 -393 -79q-131 0 -201 79q-72 83 -72 230zM154 1614q100 104 180 104 q51 0 159.5 -51t141.5 -51q18 0 51 20q47 29 59 41l27 21l29 -96q-92 -98 -166 -99q-43 0 -160 53q-111 51 -143 52q-18 0 -58 -23q-23 -12 -63 -45l-27 -22zM195 1157l254 291h98l254 -291h-139l-162 184l-166 -184h-139zM231 291q0 -100 41 -150q43 -53 119 -53 q80 0 168 18q117 25 141 33l54 19v362l-334 -31q-189 -16 -189 -198z" />
<glyph unicode="&#x1eb0;" horiz-adv-x="1234" d="M63 0l410 1427h297l404 -1425h-127l-119 387h-623l-115 -389h-127zM266 2105l45 109l426 -195l-41 -96zM307 1827h125q2 -70 55 -113q49 -41 127 -41q80 0 129.5 41t53.5 113h125q-4 -119 -88 -189q-88 -72 -219.5 -71.5t-219.5 71.5q-84 70 -88 189zM336 510h563 l-227 801h-107z" />
<glyph unicode="&#x1ec5;" horiz-adv-x="1036" d="M111 508q0 535 421 534q201 0 304 -116q100 -115 100 -367l-4 -98h-696q0 -190 63 -279q66 -90 221 -90q96 0 160 4q18 2 74.5 5t81.5 5l59 5l4 -103q-240 -29 -391 -28q-221 2 -309 131q-88 127 -88 397zM190 1614q100 104 181 104q53 0 161.5 -51t139.5 -51q20 0 53 20 q39 25 57 41l27 21l29 -96q-92 -98 -166 -99q-43 0 -160 53q-111 51 -143 52q-18 0 -58 -23q-37 -20 -63 -45l-27 -22zM221 1157l254 291h98l254 -291h-139l-162 184l-166 -184h-139zM236 563h577q0 203 -65.5 287t-215.5 84q-296 0 -296 -371z" />
<glyph unicode="&#x1ed7;" horiz-adv-x="1091" d="M111 528q0 273 98 394t334 120q223 0 325 -124q100 -121 101 -392q0 -289 -90 -420q-88 -127 -336 -126q-246 0 -340 124q-92 123 -92 424zM174 1614q100 104 180 104q51 0 160 -51t141 -51q18 0 52 20q53 35 61 41l25 21l28 -96q-92 -98 -166 -99q-43 0 -159 53 q-111 51 -144 52q-18 0 -57 -23q-23 -12 -64 -45l-26 -22zM221 1157l254 291h98l254 -291h-139l-162 184l-166 -184h-139zM236 528q0 -248 59 -344q57 -94 248 -94q188 0 243.5 98.5t55.5 337.5q0 215 -72 312q-70 94 -227 94q-178 0 -242 -86q-65 -89 -65 -318z" />
<glyph unicode="&#x1ef2;" horiz-adv-x="1120" d="M43 1427h141l379 -673l373 673h141l-450 -815v-612h-127v612zM336 1792l47 113l426 -195l-43 -98z" />
<glyph unicode="&#x1ef3;" horiz-adv-x="983" d="M57 1024h125l273 -907h73l275 907h125l-443 -1485h-123l136 461h-140zM256 1413l45 109l426 -195l-41 -96z" />
<glyph unicode="&#x1ef8;" horiz-adv-x="1120" d="M43 1427h141l379 -673l373 673h141l-450 -815v-612h-127v612zM225 1784q102 104 181 104q53 0 161.5 -51t139.5 -51q20 0 53 20q39 25 57 41l27 21l28 -96q-92 -98 -165 -99q-43 0 -160 53q-111 51 -144 52q-18 0 -57 -23q-37 -20 -63 -45l-27 -22z" />
<glyph unicode="&#x1ef9;" horiz-adv-x="983" d="M57 1024h125l273 -907h73l275 907h125l-443 -1485h-123l136 461h-140zM156 1378q102 104 180 105q51 0 159.5 -51.5t141.5 -51.5q18 0 51 21l62 41l24 20l29 -96q-92 -98 -166 -98q-43 0 -160 53q-111 51 -143 51q-18 0 -58 -22q-23 -12 -63 -45l-27 -23z" />
<glyph unicode="&#x2000;" horiz-adv-x="1105" />
<glyph unicode="&#x2001;" horiz-adv-x="2213" />
<glyph unicode="&#x2002;" horiz-adv-x="1105" />
<glyph unicode="&#x2003;" horiz-adv-x="2213" />
<glyph unicode="&#x2004;" horiz-adv-x="737" />
<glyph unicode="&#x2005;" horiz-adv-x="552" />
<glyph unicode="&#x2006;" horiz-adv-x="368" />
<glyph unicode="&#x2007;" horiz-adv-x="368" />
<glyph unicode="&#x2008;" horiz-adv-x="274" />
<glyph unicode="&#x2009;" horiz-adv-x="440" />
<glyph unicode="&#x200a;" horiz-adv-x="122" />
<glyph unicode="&#x2010;" horiz-adv-x="899" d="M127 516v119h645v-119h-645z" />
<glyph unicode="&#x2011;" horiz-adv-x="899" d="M127 516v119h645v-119h-645z" />
<glyph unicode="&#x2012;" horiz-adv-x="899" d="M127 516v119h645v-119h-645z" />
<glyph unicode="&#x2013;" horiz-adv-x="1024" d="M0 496v114h1024v-114h-1024z" />
<glyph unicode="&#x2014;" horiz-adv-x="2048" d="M0 496v114h2048v-114h-2048z" />
<glyph unicode="&#x2018;" horiz-adv-x="346" d="M45 1057l105 432h110l-86 -432h-129z" />
<glyph unicode="&#x2019;" horiz-adv-x="346" d="M86 1079l86 432h129l-104 -432h-111z" />
<glyph unicode="&#x201a;" horiz-adv-x="372" d="M68 -197l104 433h111l-86 -433h-129z" />
<glyph unicode="&#x201c;" horiz-adv-x="700" d="M156 1057l102 432h113l-33 -162l39 162h112l-86 -432h-247z" />
<glyph unicode="&#x201d;" horiz-adv-x="716" d="M129 1053l86 432h129l-102 -432h-113zM440 1053l86 432h129l-102 -432h-113z" />
<glyph unicode="&#x201e;" horiz-adv-x="696" d="M68 -197l104 433h111l-86 -433h-129zM412 -197l104 433h111l-86 -433h-129z" />
<glyph unicode="&#x2020;" d="M125 899v121h356v397h121v-397h356v-121h-356v-1057h-121v1057h-356z" />
<glyph unicode="&#x2021;" d="M125 240v116h356v543h-356v121h356v397h121v-397h356v-121h-356v-543h356v-116h-356v-398h-121v398h-356z" />
<glyph unicode="&#x2022;" d="M289 219v590h508v-590h-508z" />
<glyph unicode="&#x2026;" horiz-adv-x="1521" d="M193 0v207h135v-207h-135zM713 0v207h135v-207h-135zM1233 0v207h135v-207h-135z" />
<glyph unicode="&#x202f;" horiz-adv-x="440" />
<glyph unicode="&#x2030;" horiz-adv-x="1703" d="M45 1157q0 279 221 279q219 0 219 -281q0 -143 -59 -215t-160 -72q-102 0 -161.5 72t-59.5 217zM150 1157q0 -199 116 -199q61 0 88 50q27 47 27 147q0 98 -25 145q-25 45 -90 46q-63 0 -89.5 -45.5t-26.5 -143.5zM322 10l380 1436l95 -25l-381 -1431zM625 289 q0 279 219 278.5t219 -280.5q0 -143 -59.5 -215t-159.5 -72q-102 0 -162 72q-57 70 -57 217zM727 289q0 -199 117 -199q66 0 88 47q27 53 26 150q0 94 -26 143q-25 47 -88 47q-117 0 -117 -188zM1151 289q0 279 221 278q219 0 219 -280q0 -145 -57 -215q-59 -72 -161.5 -72 t-162 72t-59.5 217zM1255 289q0 -102 27 -150q29 -49 90 -49q66 0 90 47q25 49 25 150q0 98 -25 143q-25 47 -90 47q-61 0 -90 -47q-27 -45 -27 -141z" />
<glyph unicode="&#x2039;" horiz-adv-x="587" d="M82 459v104l371 283v-129l-265 -203l265 -223v-131z" />
<glyph unicode="&#x203a;" horiz-adv-x="587" d="M137 164v133l264 223l-264 201v129l371 -283v-104z" />
<glyph unicode="&#x205f;" horiz-adv-x="552" />
<glyph unicode="&#x2070;" horiz-adv-x="540" d="M37 1300q0 184 59 259q61 78 178 77.5t179 -77.5q61 -76 61 -260.5t-61.5 -262.5t-176.5 -78q-117 0 -178 78q-61 77 -61 264zM150 1298q0 -135 30.5 -186t95.5 -51q63 0 94 53t31 186q0 125 -30.5 180.5t-96.5 55.5q-70 0 -96 -55q-28 -58 -28 -183z" />
<glyph unicode="&#x2074;" horiz-adv-x="540" d="M33 1083v95l155 440h119l-160 -432h177l8 178h102v-178h62v-103h-62v-104h-110v104h-291z" />
<glyph unicode="&#x2075;" horiz-adv-x="540" d="M68 987l8 96q117 -23 194 -22q47 0 78 30.5t31 88.5q0 106 -94 106q-66 0 -121 -37l-88 11l20 358h373v-100h-279l-12 -170q46 37 123 36q195 0 195 -202q0 -104 -60 -164q-57 -57 -155 -57q-86 -1 -213 26z" />
<glyph unicode="&#x2076;" horiz-adv-x="540" d="M45 1294q0 180 61 260q63 82 191 82q76 0 176 -18l-6 -94q-88 14 -168 14q-70 0 -104 -41q-33 -39 -33 -133l18 6q31 10 53 16q37 10 60 11q209 0 209 -209q0 -104 -60 -168q-57 -61 -161 -62q-236 0 -236 336zM160 1262q4 -203 119 -203q111 0 110 127q0 63 -24 88 q-27 27 -84 26q-23 0 -58 -10q-39 -12 -47 -16q-16 -10 -16 -12z" />
<glyph unicode="&#x2077;" horiz-adv-x="540" d="M57 1511v107h414v-145l-221 -512l-117 22l215 483v45h-291z" />
<glyph unicode="&#x2078;" horiz-adv-x="540" d="M31 1149q0 120 110 166q-100 37 -100 151q0 170 229.5 170t229.5 -172q0 -121 -99 -151q109 -35 109 -156q0 -108 -61 -153q-59 -45 -179 -46q-239 1 -239 191zM145 1151q0 -96 125 -96t125 102q0 47 -22.5 69.5t-71.5 37.5h-61q-51 -16 -72 -39q-23 -27 -23 -74z M154 1458q0 -39 20 -63q18 -20 66 -37h61q49 15 67.5 36.5t18.5 61.5q0 86 -116.5 86t-116.5 -84z" />
<glyph unicode="&#x2079;" horiz-adv-x="540" d="M39 1417q0 100 63.5 159.5t161.5 59.5q236 0 236 -342q0 -186 -60 -260q-61 -76 -192 -76q-78 0 -180 23l6 92q89 -12 166 -12q143 0 147 170q-80 -29 -139 -29q-98 0 -154 58q-55 59 -55 157zM154 1417q0 -53 28 -88q27 -33 78 -33q31 0 57.5 8.5t51.5 18.5l20 8 q-6 207 -123 207q-112 0 -112 -121z" />
<glyph unicode="&#x2080;" horiz-adv-x="540" d="M37 322q0 184 59 258q61 78 178 77.5t179 -77.5q61 -76 61 -260.5t-61.5 -262t-176.5 -77.5q-117 0 -178 77q-61 78 -61 265zM150 319q0 -135 30.5 -186t95.5 -51q63 0 94 53t31 187q0 127 -30 182q-29 53 -97 53q-70 0 -96 -53q-28 -58 -28 -185z" />
<glyph unicode="&#x2081;" horiz-adv-x="540" d="M68 498l206 141h105v-639h-111v518l-149 -102z" />
<glyph unicode="&#x2082;" horiz-adv-x="540" d="M49 0v98l189 191q61 61 81 94q25 40 25 86q0 84 -106 84q-68 0 -177 -21l-6 101q117 25 203 24q199 0 199 -180q0 -68 -31 -121q-31 -52 -98 -116l-135 -140h274v-100h-418z" />
<glyph unicode="&#x2083;" horiz-adv-x="540" d="M55 2l6 96q121 -16 209 -16q111 0 111 96q0 100 -105 101h-133v96h131q34 0 62 31q29 33 29 73q0 78 -105 78q-82 0 -190 -16l-7 96q109 20 205 20q209 0 209 -168q0 -104 -88 -155q55 -18 80 -49q27 -33 27 -109q0 -197 -215 -196q-95 -1 -226 22z" />
<glyph unicode="&#x2084;" horiz-adv-x="540" d="M33 104v95l155 440h119l-160 -432h177l8 178h102v-178h62v-103h-62v-104h-110v104h-291z" />
<glyph unicode="&#x2085;" horiz-adv-x="540" d="M68 8l8 96q117 -23 194 -22q47 0 78 30.5t31 88.5q0 106 -94 106q-66 0 -121 -37l-88 11l20 358h373v-100h-279l-12 -170q46 37 123 37q195 0 195 -203q0 -104 -60 -164q-57 -57 -155 -57q-86 -1 -213 26z" />
<glyph unicode="&#x2086;" horiz-adv-x="540" d="M45 315q0 180 61 260q63 82 191 82q76 0 176 -18l-6 -94q-88 14 -168 14q-70 0 -104 -41q-33 -39 -33 -133l18 6l53 17q37 10 60 10q209 0 209 -209q0 -104 -60 -168q-57 -61 -161 -61q-236 -1 -236 335zM160 283q4 -203 119 -203q111 0 110 127q0 66 -24.5 90.5 t-83.5 24.5q-31 0 -58 -9q-33 -10 -47 -18q-16 -10 -16 -12z" />
<glyph unicode="&#x2087;" horiz-adv-x="540" d="M57 532v107h414v-145l-221 -512l-117 22l215 483v45h-291z" />
<glyph unicode="&#x2088;" horiz-adv-x="540" d="M31 170q0 120 110 166q-100 37 -100 151q0 170 229.5 170t229.5 -172q0 -121 -99 -151q109 -35 109 -156q0 -111 -61 -153q-63 -45 -179 -45q-239 0 -239 190zM145 172q0 -96 125 -96t125 102q0 47 -22.5 69.5t-71.5 37.5h-61q-51 -16 -72 -39q-23 -27 -23 -74zM154 479 q0 -39 20 -63q18 -20 66 -37h61q49 15 67.5 36.5t18.5 61.5q0 86 -116.5 86t-116.5 -84z" />
<glyph unicode="&#x2089;" horiz-adv-x="540" d="M39 438q0 100 63.5 159.5t161.5 59.5q236 0 236 -342q0 -184 -60 -258q-61 -78 -192 -77q-78 0 -180 22l6 92q89 -12 166 -12q143 0 147 170q-80 -29 -139 -29q-98 0 -154 58q-55 59 -55 157zM154 438q0 -53 28 -88q27 -33 78 -33q31 0 57.5 8.5t51.5 18.5l20 8 q-6 207 -123 207q-112 0 -112 -121z" />
<glyph unicode="&#x20ac;" horiz-adv-x="1116" d="M43 473v107h121v206h-121v107h129q20 252 133 373q111 119 369 118q178 0 360 -38l-6 -117q-188 33 -344 33q-199 0 -280.5 -88.5t-100.5 -282.5h586v-105h-594v-206l594 -2v-105h-586q18 -201 100 -285q83 -86 283 -86q143 0 342 33l6 -117q-195 -39 -360 -38 q-258 0 -371 118q-109 115 -131 375h-129z" />
<glyph unicode="&#x2122;" d="M14 1196v88h410v-88h-150v-516h-94v516h-166zM489 678v606h132l149 -453l156 453h129v-606h-90v485l-154 -458h-82l-147 458v-485h-93z" />
<glyph unicode="&#x2211;" horiz-adv-x="1703" />
<glyph unicode="&#x2212;" d="M57 565v115h965v-115h-965z" />
<glyph unicode="&#x221e;" horiz-adv-x="1085" d="M41 598q0 166 61.5 258t184.5 92q96 0 153.5 -53t102.5 -166q46 114 104 166q59 53 154 53q123 0 184.5 -92t61.5 -258q0 -350 -250 -350q-96 0 -150 51q-55 53 -102 164q-45 -123 -99 -170q-51 -45 -155 -45q-250 0 -250 350zM162 598q0 -233 131 -233q31 0 61 10 q25 8 49 43q31 45 33 47q16 27 33 67q6 14 12 30t9.5 24t5.5 12q0 2 -6.5 16.5l-16.5 38.5q-10 23 -15 36t-9 22q-6 12 -27 45q-18 29 -35 41q-18 14 -39 22q-27 10 -55 10q-131 0 -131 -231zM592 598q6 -14 26 -66l33 -67q4 -8 33 -49q18 -27 47 -39q27 -12 64 -12 q131 0 131 233q0 231 -131 231q-33 0 -64 -10q-25 -8 -49 -43q-12 -18 -21.5 -29.5t-11.5 -15.5q-9 -12 -31 -67z" />
<glyph unicode="&#x2248;" d="M131 408q6 6 35 30q22 18 80 49q55 29 108 29q68 0 203 -51q141 -53 180 -53q78 0 197 100l14 -121q-4 -4 -33 -29q-12 -10 -77 -47q-55 -31 -103 -30q-61 0 -202.5 53t-182.5 53q-78 0 -203 -102zM133 782q6 6 35 31q14 12 80 47q59 31 108 31q61 0 203 -53 q135 -51 180 -52q78 0 197 101l14 -121q-4 -4 -32 -29q-20 -16 -78 -49q-51 -29 -103 -29q-61 0 -202.5 53.5t-182.5 53.5q-82 0 -202 -102z" />
<glyph unicode="&#x2260;" d="M104 692v115h506l144 326l108 -43l-125 -283h262v-115h-311l-123 -280h436v-115h-487l-141 -326l-111 43l125 283h-281v115h330l123 280h-455z" />
<glyph unicode="&#x2264;" d="M172 100v123h705v-123h-705zM172 662v147l705 311v-131l-588 -250l588 -268v-135z" />
<glyph unicode="&#x2265;" d="M207 100v123h711v-123h-711zM207 336v135l594 268l-594 250v131l711 -311v-147z" />
<glyph unicode="&#xe000;" horiz-adv-x="1025" d="M0 1025h1025v-1025h-1025v1025z" />
<glyph horiz-adv-x="479" />
<glyph horiz-adv-x="1099" d="M207 0v1495h72v-534q174 82 352 81q203 0 276 -116q72 -113 72 -391q0 -299 -96.5 -426t-370.5 -127q-139 0 -305 18zM279 59q160 -12 231 -12q129 0 207 26.5t119 94.5q43 72 55 147q12 83 12 215q0 246 -53 344q-55 102 -219 103q-86 0 -170 -21q-98 -25 -135 -41 l-47 -20v-836z" />
<glyph horiz-adv-x="1282" d="M211 0v1434h491q209 0 311.5 -84t102.5 -265q0 -272 -198 -346q254 -70 253 -338q0 -221 -110 -311q-113 -90 -320 -90h-530zM285 70h456q168 0 263 75q92 74 92 256q0 297 -371 297h-440v-628zM285 766h440q163 0 240 80q76 78 75 239q0 150 -82 213q-84 66 -256 66 h-417v-598z" />
<glyph horiz-adv-x="980" d="M72 1024h75l299 -958h89l301 958h75l-321 -1024h-201z" />
<glyph horiz-adv-x="931" d="M78 0l346 512l-346 512h82l307 -457l307 457h82l-346 -512l346 -512h-84l-305 457l-305 -457h-84z" />
<glyph d="M94 690q0 371 129 526.5t375 155.5q174 0 328 -39l-8 -67q-147 37 -320 37q-209 0 -317 -136q-109 -137 -109 -446q0 4 57 31q68 31 156 59q92 29 178 29q428 0 428 -414q0 -444 -438 -444q-238 0 -348.5 178t-110.5 530zM170 649q2 -295 94 -448q88 -150 289 -150 q197 0 278 92q82 90 82 283q0 168 -79.5 256t-274.5 88q-174 -6 -385 -119z" />
<glyph d="M96 928q0 213 113 327q115 117 334 117q231 0 340 -178q109 -180 108 -530q0 -369 -123 -527q-123 -156 -364 -155q-74 0 -164 12q-106 14 -137 20l-51 11l12 65q164 -39 340 -39q207 0 309 139.5t102 452.5q0 -4 -57 -31q-53 -25 -156 -57q-98 -31 -178 -31 q-219 0 -323 109q-105 108 -105 295zM174 928q0 -152 86 -244q84 -90 268 -90q174 6 385 119l5 2q-10 588 -375 588q-369 0 -369 -375z" />
<glyph horiz-adv-x="1335" d="M211 0v1434h586q119 0 209 -72q86 -70 131 -186q39 -102 59 -224q18 -108 18 -215q0 -53 -8 -159q-4 -63 -32 -189q-27 -115 -66 -192q-41 -78 -125 -140q-78 -57 -186 -57h-586zM285 70h512q92 0 157 57q72 61 103 133q35 82 53 180q20 113 23 170q4 86 4 127 q0 74 -15 160q-18 106 -47 205q-35 115 -106 186q-76 76 -172 76h-512v-1294z" />
<glyph d="M211 0v1434h74v-1364h698v-70h-772z" />
<glyph horiz-adv-x="0" />
<glyph d="M59 1165q0 143 52 207q53 66 165.5 66t163.5 -64q53 -66 54 -211q0 -283 -218 -282q-111 0 -164 69.5t-53 214.5zM131 1165q0 -113 33 -166t112 -53q82 0 113 53q33 55 33 164q0 106 -33 160q-31 49 -113 49q-78 0 -112 -51q-33 -47 -33 -156zM381 12l295 1424l74 -15 l-295 -1423zM635 285q0 143 51 207q53 66 166 65q111 0 164 -65.5t53 -208.5q0 -283 -217 -283q-111 0 -164 68q-53 70 -53 217zM707 284.5q0 -110.5 32 -163.5q35 -55 113 -55q82 0 113 53q33 55 32 164q0 106 -32 159q-31 49 -113 50q-78 0 -113 -50q-32 -47 -32 -157.5z " />
<glyph d="M279 938l225 164l-223 164l41 55l225 -166l86 264l65 -20l-86 -266h277v-70h-281l86 -264l-65 -21l-86 266l-226 -161z" />
<glyph horiz-adv-x="530" d="M10 616q0 172 51 412q47 223 99 369l49 139h72q-27 -72 -54 -158q-29 -92 -86 -346q-55 -246 -55 -416q0 -341 178 -829l17 -43h-72l-55 139q-31 82 -88 320q-56 231 -56 413z" />
<glyph horiz-adv-x="530" d="M-8 -246q39 109 55 158q23 76 84 344q55 246 55 418q0 341 -178 829l-16 43h71l56 -139q31 -82 88 -320q55 -231 55 -413q0 -181 -49 -411.5t-98 -368.5l-52 -140h-71z" />
<glyph horiz-adv-x="581" d="M0 602v66q117 28 166 86q47 55 47 159q0 27 -6 125q-8 131 -8 138q0 182 84 270q80 82 276 92l4 -65q-172 -10 -231 -78q-61 -72 -62 -219q0 -37 6 -125l9 -119q0 -135 -45 -195q-47 -63 -160 -100q115 -37 160 -100.5t45 -190.5l-15 -237q0 -145 62 -218q61 -70 231 -79 l-4 -66q-199 10 -278 92q-82 84 -82 271q0 14 8 137q6 92 6 114q0 100 -47 153.5t-166 88.5z" />
<glyph horiz-adv-x="1931" d="M123 711q0 379 119 559q121 182 430 182q221 0 301 -18h837v-74h-763v-586h641v-74h-641v-626h763v-74h-833v-2q-76 -16 -305 -16q-168 0 -273 45q-106 45 -168 143q-59 96 -84 223q-24 130 -24 318zM201 711q0 -174 18 -287q18 -109 70 -203q49 -90 143 -129 q98 -41 240 -41q218 0 301 19v1288q-80 25 -301 24q-143 0 -237.5 -43t-143.5 -135q-53 -100 -70 -205q-20 -128 -20 -288zM973 1358l2 -680v680h-2z" />
<glyph horiz-adv-x="1703" d="M469 434v66h379v477h-379v65h379v392h72v-392h378v-65h-378v-477h378v-66h-378v-434h-72v434h-379z" />
<glyph horiz-adv-x="788" d="M10 1397q231 55 340 55q201 0 307 -76q102 -72 103 -248q0 -98 -41 -174q-43 -80 -103 -139q-59 -57 -120 -110q-55 -47 -103 -115q-41 -59 -41 -123v-78h-71v84q0 70 43 137.5t102 120.5l119 113q57 57 100 131t43 153q0 139 -84 199q-82 57 -254 57q-100 0 -330 -57z M276 2v164h82v-164h-82z" />
<glyph horiz-adv-x="286" d="M51 0v164h82v-164h-82zM51 705v163h82v-163h-82z" />
<glyph horiz-adv-x="346" d="M-12 -252l84 430h86l-107 -430h-63zM66 705v163h81v-163h-81z" />
<glyph horiz-adv-x="612" d="M98 1534h375v-66h-301v-1654h301v-66h-373z" />
<glyph horiz-adv-x="612" d="M104 -186h302v1654h-302v66h375l-2 -1786h-373v66z" />
<glyph horiz-adv-x="202" d="M-41 1413h244l-10 -471h-230z" />
<glyph horiz-adv-x="724" d="M68 1413h243l-10 -471h-229zM391 1413h244l-10 -471h-230z" />
<glyph horiz-adv-x="1431" d="M78 426q0 180 78 270q76 88 256 142q-70 76 -86 133q-18 61 -19 155q0 133 80 213q82 82 234 82q162 0 237 -80q76 -78 76 -217q0 -145 -78 -229t-260 -143l383 -379q43 131 63 299h72q-27 -219 -80 -353l287 -280l-49 -53l-268 266q-135 -270 -455 -270 q-258 0 -364.5 112.5t-106.5 331.5zM150 428q0 -190 94 -284.5t309 -94.5q281 0 397 254l-485 481q-175 -46 -246 -122q-69 -76 -69 -234zM379 1126q0 -160 92 -252l74 -73q176 61 248 129q70 68 69 196q0 229 -241.5 229t-241.5 -229z" />
<glyph horiz-adv-x="1165" d="M233 0v70h189v696h-141v65h141v195q0 215 67.5 291t212.5 76q77 0 246 -25v-65q-178 25 -246 24q-109 0 -159 -63q-49 -61 -49 -238v-195h372v-65h-372v-696h356l168 32l14 -65l-166 -35z" />
<glyph horiz-adv-x="1212" d="M139 502v69h127q-2 23 -2 107q0 100 2 127h-127v69h131q23 262 131 388q111 125 373 124q184 0 359 -38l-7 -72q-193 41 -352 41q-225 0 -317 -107q-90 -104 -109 -336l637 -2v-67h-641q-2 -27 -2 -127q0 -84 2 -107l641 -2v-67h-639q16 -238 107 -344q92 -106 321 -107 q141 0 352 41l7 -69q-201 -41 -359 -41q-262 0 -373 124q-113 129 -131 396h-131z" />
<glyph horiz-adv-x="1703" d="M504 1407l71 29l617 -1407l-72 -29z" />
<glyph horiz-adv-x="1062" d="M55 -70h877v-69h-877v69z" />
<glyph horiz-adv-x="1257" d="M211 0v1434h522q213 0 320 -103q104 -102 104 -329.5t-96 -352.5q-94 -123 -328 -123h-448v-526h-74zM285 596h448q346 0 346 405q0 188 -86 275q-88 88 -260 88h-448v-768z" />
<glyph d="M6 684v74h688v-74h-688zM309 285v164h82v-164h-82zM309 989v164h82v-164h-82z" />
<glyph horiz-adv-x="837" d="M-100 479v70h475v475h74v-475h479v-70h-479v-479h-74v479h-475z" />
<glyph horiz-adv-x="899" d="M123 541v69h655v-69h-655z" />
<glyph d="M129 602v74l711 469v-80l-645 -422l645 -444v-84q-633 430 -711 487z" />
<glyph d="M2 702v70h1034v-70h-1034zM4 356v70h1034v-70h-1034z" />
<glyph d="M129 115v84l645 444l-645 422v80l711 -469v-74z" />
<glyph d="M94 25l568 1413l67 -29l-567 -1411z" />
<glyph horiz-adv-x="1792" d="M123 535q0 287 94 395q96 113 326 112q301 0 377 -245q88 246 372 245q193 0 291 -116.5t98 -374.5v-68h-727q0 -223 70 -329.5t242 -106.5q143 0 372 19l4 -66q-229 -18 -378 -18q-270 4 -346 219q-37 -115 -125 -166q-90 -53 -250 -53q-248 0 -334 118q-86 122 -86 435 zM199 535q0 -141 12 -226q14 -90 47 -149q37 -63 104.5 -88t180.5 -25q115 0 180 27q68 29 102.5 96.5t42.5 144.5q10 88 11 215q0 243 -80 344q-80 102 -256 103q-197 0 -270.5 -92t-73.5 -350zM954 549h652q0 231 -74 329.5t-240 98.5q-338 0 -338 -428z" />
<glyph horiz-adv-x="1837" d="M72 0l514 1434h1130v-70h-764v-590h641v-69h-641v-635h764v-70h-837v440h-566l-159 -440h-82zM338 510h541v854h-236z" />
<glyph horiz-adv-x="1341" d="M94 711q0 379 119 559q121 182 430 182q170 0 287 -57l106 227l68 -29l-113 -237q109 -84 156 -244q45 -154 45 -401q0 -393 -115 -559q-117 -170 -434 -170q-162 0 -274 47l-119 -256l-68 26l123 264q-117 78 -164 236q-47 160 -47 412zM172 711q0 -230 37 -369 q39 -143 129 -211l559 1196q-98 55 -254 55q-143 0 -237 -43q-96 -43 -146 -135q-49 -94 -67 -205q-21 -128 -21 -288zM399 94q98 -43 244 -43q150 0 242 37q90 37 141 125q51 90 70 203q18 114 18 295q0 430 -156 573z" />
<glyph horiz-adv-x="1693" d="M113 281q0 143 63.5 206.5t218.5 87.5l389 41v107q0 250 -227 250q-152 0 -385 -19l-4 68q213 20 389 20q236 0 285 -196q100 197 352 196q195 0 293 -116q96 -115 96 -375v-68h-727q0 -223 69.5 -329.5t241.5 -106.5q143 0 373 19l4 -66q-229 -18 -379 -18 q-205 4 -293 118l-77 -32q-190 -86 -422 -86q-260 0 -260 299zM188 280.5q0 -112.5 50 -174.5q47 -59 137 -59q84 0 198 25q119 27 175 45q76 27 94 35q-61 119 -62 360v37l-377 -37q-111 -8 -163 -66q-52 -53 -52 -165.5zM856 549h651q0 229 -75 330q-74 98 -238 98 q-338 0 -338 -428z" />
<glyph d="M111 498q0 295 112.5 419.5t313.5 124.5q100 0 180 -26q76 -25 133 -86q61 -66 88 -168q29 -111 29 -268q0 -281 -113 -396q-113 -117 -315 -116q-428 0 -428 516zM227 500q0 -230 80 -320t234 -90q156 0 231 86q76 84 76 320q0 176 -39 272q-41 100 -102 133 q-63 33 -168 33q-152 0 -232 -92t-80 -342z" />
<glyph d="M201 795l374 229h107v-1024h-117v891l-315 -191z" />
<glyph d="M190 0v104l375 316q117 96 168 165.5t51 157.5q0 102 -59 146q-58 43 -197 43q-37 0 -129 -10q-83 -9 -141 -19q-57 -8 -57 -10l-11 106q212 43 363 43q354 0 354 -290q0 -115 -53 -197q-51 -78 -166 -168l-342 -278h590v-109h-746z" />
<glyph d="M205 20l14 107q205 -33 377 -33q258 4 258 195q0 184 -252 196h-254v105h252q92 2 158 47q66 43 65.5 133t-57.5 127t-182 37q-80 0 -160 -8q-113 -12 -139 -17l-54 -8l-12 107q206 37 363 36q176 0 268 -61t92 -197q0 -39 -4 -55q-6 -20 -16 -47q-6 -14 -23 -39 q-14 -20 -27 -31l-28 -24q-8 -6 -29 -19q-15 -9 -24 -12q-2 0 -9.5 -3t-11.5 -5l-10 -4q94 -29 155 -88q57 -55 58 -174q0 -151 -99 -228q-96 -76 -278 -75q-63 0 -172 10q-98 9 -160 18z" />
<glyph d="M115 197v94l336 733h122l-327 -717h448v285h119v-285h115v-110h-115v-248h-119v248h-579z" />
<glyph d="M201 25l14 108q246 -41 385 -41q248 0 248 240q0 205 -248 205q-55 0 -133 -19q-72 -16 -123 -41l-47 -18l-88 20l37 549h686v-117h-580l-28 -336q147 70 286 70q362 0 363 -309q0 -170 -98.5 -262t-272.5 -92q-71 0 -172 12l-166 20z" />
<glyph d="M164 520q0 522 422 522q41 0 143 -8q82 -6 121 -14l45 -8l-10 -101q-168 25 -299 25q-145 0 -226 -84q-80 -82 -79 -287q0 2 49 21q63 25 125 41q74 20 131 20q367 0 366 -325q0 -166 -104 -254q-102 -88 -295 -88q-389 -1 -389 540zM281 463q6 -379 276 -379 q276 0 277 238q0 113 -59.5 164t-196.5 51q-57 0 -132 -19q-72 -18 -118 -37z" />
<glyph d="M135 920v106h690v-149l-446 -895l-103 30l435 869v39h-576z" />
<glyph d="M127 262q0 86 29 137q31 53 67 82q37 28 105 56q-182 72 -183 241q0 264 385 264q391 0 392 -266q0 -96 -50 -151q-51 -57 -145 -88q100 -35 158 -93q55 -55 55 -170q0 -164 -106.5 -229t-303.5 -65q-403 -1 -403 282zM246 268q0 -104 73 -143q76 -41 211 -41 q141 0 218 41q74 39 73 156q0 96 -49 137q-51 41 -156 65h-182q-94 -25 -141 -72t-47 -143zM264 770q0 -82 39 -121q43 -43 131 -67h182q96 25 144 67q45 43 45 121q0 88 -70 129q-66 39 -205 39q-133 0 -200 -39q-66 -37 -66 -129z" />
<glyph d="M139 702q0 158 102.5 250t278.5 92q399 0 400 -530q0 -532 -424 -532q-145 0 -316 34l8 101q176 -29 308 -29q147 0 225 86q76 84 76 289q-158 -76 -297 -76q-178 0 -269 82q-92 82 -92 233zM256 705q0 -213 252 -213q129 6 289 75q-2 184 -72 279q-68 92 -207 92 q-262 0 -262 -233z" />
<glyph d="M496 -121v1555h71v-1555h-71z" />
<glyph horiz-adv-x="892" d="M25 506q0 399 356 434v270h72v-266l237 -22l-4 -72q-141 16 -233 20v-712l237 16l4 -72q-162 -18 -241 -18v-260h-72v260q-188 10 -272 100.5t-84 321.5zM106 506q0 -195 60 -266q58 -71 215 -80v706q-139 -16 -207 -100q-68 -86 -68 -260z" />
<glyph d="M125 696v70h506l147 334l72 -29l-135 -305h280v-70h-311l-135 -309h448v-70h-479l-147 -337l-72 28l135 309h-307v70h338l135 309h-475z" />
<glyph horiz-adv-x="1103" d="M51 1352h84l420 -633l414 633h86l-391 -604h344v-70h-390l-26 -41v-195h418v-69h-418v-373h-74v373h-420v69h420v195l-26 41h-396v70h350z" />
<glyph d="M184 -512v1536h72v-528q0 -270 49 -359q49 -90 215 -90q174 0 332 100l4 3v874h72v-1024h-72v82l-17.5 -9t-31.5 -18q-27 -16 -121 -45q-92 -29 -166 -28q-194 0 -264 104v-598h-72z" />
<glyph d="M143 -496l4 68q126 -6 185 -6q94 0 141 69.5t47 229.5v856h-141v65h141v228q0 365 260 364l191 -6l-4 -65q-168 4 -187 4q-188 0 -188 -299v-226h332v-65h-332v-856q0 -201 -64 -283q-66 -84 -196 -84z" />
<glyph horiz-adv-x="346" d="M-12 -252l86 430h82l-105 -430h-63z" />
<glyph horiz-adv-x="505" d="M201 0v164h82v-164h-82z" />
<glyph horiz-adv-x="346" d="M8 1079l82 410h78l-98 -410h-62z" />
<glyph horiz-adv-x="1703" d="M240 1073q0 160 110 260q109 100 271 101h712v-68h-198v-1366h-74v1366h-352v-1366h-74v717h-14q-160 0 -270.5 98t-110.5 258z" />
<glyph horiz-adv-x="581" d="M-2 -197q172 10 231 78q61 70 62 219q0 6 -8 125q-6 90 -7 119q0 135 46 195q47 63 159 100q-115 37 -160 100.5t-45 190.5l15 237q0 147 -61.5 217t-231.5 80l4 66q197 -10 277 -92q84 -88 83 -271q0 -14 -8 -137q-6 -92 -6 -115q0 -100 47 -153t166 -88v-66 q-117 -28 -166 -86q-47 -55 -47 -160q0 -27 6 -124q8 -131 8 -138q0 -182 -83 -270q-80 -82 -277 -92z" />
<glyph horiz-adv-x="346" d="M-45 1079l98 410h62l-82 -410h-78z" />
<glyph horiz-adv-x="0" d="M178 344q0 51 10 102q8 41 23 74q12 27 41 60q37 41 43 47q8 8 53 43l53 43l-41 32l-41 33l-32 29q-25 20 -31 35l-20 35q-18 29 -20.5 45t-8.5 51q-6 27 -6 63q0 340 481 340q489 0 489 -342q0 -29 -4 -69q-4 -37 -16 -60q-12 -20 -21 -43q-4 -10 -34 -41l-22 -22 l-11 -13q-18 -18 -45 -38q-41 -33 -47 -35l61 -47q57 -43 66 -54l45 -57q31 -41 39 -82q10 -51 10 -106q0 -213 -133 -304q-131 -88 -377 -88q-504 0 -504 369zM481 418q0 -152 201 -152q207 0 207 152q0 104 -113 155h-180q-66 -31 -90.5 -67.5t-24.5 -87.5zM504 963 q0 -6 1 -14.5t1 -10.5q0 -12 6 -20q2 -4 4 -9.5t2 -7.5l6 -6q6 -4 8 -6q12 -12 16.5 -14.5t22.5 -14.5l25 -16h180q12 8 23 14q6 4 11 9t7 5q2 2 8 6.5t9 6.5q12 8 14 12t8 10t6 15q0 6 4 18q2 6 2 23q0 68 -39 94q-41 29 -143 28q-104 0 -143 -30.5t-39 -91.5z" />
<glyph horiz-adv-x="731" d="M43 774v248h121v266l274 21v-287h252v-248h-252v-387q0 -72 2 -88q2 -23 23 -43q18 -18 61 -18l156 4l12 -236q-138 -31 -209 -31q-184 0 -252 82q-68 83 -67 308v409h-121z" />
<glyph horiz-adv-x="899" d="M123 461v229h655v-229h-655z" />
<glyph horiz-adv-x="505" d="M92 0v291h270v-291h-270z" />
<glyph d="M2 217v270h1036v-270h-1036zM2 641v270h1034v-270h-1034z" />
<glyph horiz-adv-x="1062" d="M55 31h877v-271h-877v271z" />
<glyph horiz-adv-x="692" d="M49 545v188q213 53 213 185q0 27 -6 124q-8 131 -8 138q0 184 90 268q86 80 311 90v-229q-96 -10 -119 -37q-27 -33 -26 -113q0 -8 8 -115q6 -80 6 -108q0 -135 -45 -194.5t-160 -100.5q117 -40 160 -98q45 -61 45 -193q0 -31 -6 -106q-8 -102 -8 -111q0 -84 26 -117 q27 -31 119 -41v-229q-223 8 -311 94q-90 86 -90 273q0 14 8 137q6 92 6 115q0 121 -213 180z" />
<glyph horiz-adv-x="581" d="M-219 -33q96 10 119 37q27 33 26 113q0 8 -8 114q-6 80 -6 109q0 135 45 194.5t160 100.5q-117 40 -160 98q-45 61 -45 193q0 29 6 106q8 102 8 111q0 84 -26 117q-27 31 -119 40v230q223 -8 311 -94q90 -86 90 -273q0 -14 -8 -137q-6 -92 -6 -115q0 -121 213 -180v-188 q-213 -53 -213 -185q0 -27 6 -125q8 -131 8 -137q0 -184 -90 -268q-86 -80 -311 -90v229z" />
<glyph horiz-adv-x="837" d="M-100 389v250h387v385h250v-385h391v-250h-391v-389h-250v389h-387z" />
<glyph horiz-adv-x="540" d="M37 117q0 186 59 260q61 76 178 76t179 -78q61 -76 61 -260.5t-61.5 -262t-176.5 -77.5q-117 0 -178 78q-61 77 -61 264zM150 115q0 -132 30 -185q31 -53 96 -53q63 0 94 53.5t31 186.5q0 127 -30 182q-29 53 -97 53q-70 0 -96 -53q-28 -57 -28 -184z" />
<glyph horiz-adv-x="540" d="M68 293l206 141h105v-639h-111v518l-149 -102z" />
<glyph horiz-adv-x="540" d="M49 -106l189 190q61 61 81 94q25 40 25 86q0 84 -106 84q-68 0 -177 -20l-6 100q117 25 203 25q199 0 199 -181q0 -68 -31 -120t-98 -117l-135 -139h274v-101h-418v99z" />
<glyph horiz-adv-x="540" d="M55 -203l6 97q121 -16 209 -17q111 0 111 96q0 100 -105 101h-133v96h131q34 0 62 31q29 33 29 73q0 78 -105 78q-82 0 -190 -16l-7 96q109 20 205 21q209 0 209 -168q0 -100 -88 -156q55 -18 80 -49q27 -33 27 -109q0 -197 -215 -196q-95 -1 -226 22z" />
<glyph horiz-adv-x="540" d="M33 -6l155 440h119l-160 -432h177l8 178h102v-178h62v-102h-62v-105h-110v105h-291v94z" />
<glyph horiz-adv-x="540" d="M68 -197l8 97q117 -23 194 -23q47 0 78 31t31 88q0 106 -94 106q-66 0 -121 -36l-88 10l20 358h373v-100h-279l-12 -170q46 37 123 37q195 0 195 -203q0 -104 -60 -164q-57 -57 -155 -57q-86 -1 -213 26z" />
<glyph horiz-adv-x="540" d="M45 111q0 182 61.5 262t190.5 80q76 0 176 -19l-6 -94q-88 14 -168 14q-70 0 -104 -41q-33 -39 -33 -133l18 6l53 17q37 10 60 10q209 0 209 -209q0 -104 -60 -168q-57 -61 -161 -61q-236 0 -236 336zM160 78q4 -203 119 -203q111 0 110 127q0 63 -24 88q-27 27 -84 27 q-23 0 -58 -11q-33 -10 -47 -18z" />
<glyph horiz-adv-x="540" d="M57 328v106h414v-145l-221 -512l-117 22l215 484v45h-291z" />
<glyph horiz-adv-x="540" d="M31 -35q0 120 110 166q-100 37 -100 152q0 170 229.5 170t229.5 -172q0 -121 -99 -152q109 -35 109 -156q0 -111 -61 -153q-63 -45 -179 -45q-239 0 -239 190zM145 -33q0 -96 125 -96t125 102q0 47 -22.5 70t-71.5 37h-61q-51 -16 -72 -39q-23 -27 -23 -74zM154 274 q0 -39 20 -63q18 -20 66 -37h61q49 15 67.5 36.5t18.5 61.5q0 86 -116.5 86t-116.5 -84z" />
<glyph horiz-adv-x="540" d="M39 233q0 100 63.5 160t161.5 60q236 0 236 -342q0 -184 -60 -258q-61 -78 -192 -78q-78 0 -180 22l6 92q89 -12 166 -12q143 0 147 170q-80 -29 -139 -29q-98 0 -154 58q-55 59 -55 157zM154 233q0 -51 28.5 -85.5t77.5 -34.5q23 0 57 10q43 12 52 16l20 8 q-6 207 -123 207q-112 0 -112 -121z" />
<glyph horiz-adv-x="1521" d="M193 0v207h135v-207h-135zM713 0v207h135v-207h-135zM1233 0v207h135v-207h-135z" />
<glyph horiz-adv-x="788" d="M18 -86q0 94 41 176q41 84 99 137q58 55 116.5 104.5t98.5 104.5q41 57 41 111v78h129v-84q0 -70 -41 -135q-40 -65 -99 -117q-90 -78 -116 -103q-57 -51 -98.5 -120.5t-41.5 -143.5q0 -127 70 -178t227 -51q43 0 123 12q70 10 142 29l59 12l14 -121q-229 -55 -342 -55 q-213 0 -317.5 80t-104.5 264zM410 815v207h135v-207h-135z" />
<glyph horiz-adv-x="788" d="M33 324q0 96 41 178q40 80 98 135q74 72 115 104q63 53 100 105q41 57 41 110v78h129v-84q0 -72 -41 -137q-37 -59 -98 -115l-117 -102q-57 -51 -98 -120.5t-41 -143.5q0 -125 71 -178q70 -51 226 -52q45 0 125 13q47 8 139 26l59 15l15 -121q-231 -55 -342 -55 q-213 0 -317.5 80t-104.5 264zM424 1225v207h135v-207h-135z" />
<glyph horiz-adv-x="788" d="M33 324q0 96 41 178q40 80 98 135q74 72 115 104q63 53 100 105q41 57 41 110v78h129v-84q0 -72 -41 -137q-37 -59 -98 -115l-117 -102q-57 -51 -98 -120.5t-41 -143.5q0 -125 71 -178q70 -51 226 -52q45 0 125 13q47 8 139 26l59 15l15 -121q-231 -55 -342 -55 q-213 0 -317.5 80t-104.5 264zM424 1225v207h135v-207h-135z" />
<glyph horiz-adv-x="1024" d="M0 557v115h1024v-115h-1024z" />
<glyph horiz-adv-x="2048" d="M0 557v115h2048v-115h-2048z" />
<glyph horiz-adv-x="505" d="M174 588v207h135v-207h-135z" />
<glyph d="M487 1122v207h136v-207h-136zM489 -102l5 970h122l5 -970h-132z" />
<glyph horiz-adv-x="530" d="M88 678q0 181 49 412q47 215 101 368l49 139h129q-23 -59 -54 -159q-31 -98 -86 -344t-55 -416q0 -341 178 -830q16 -43 17 -43h-129l-56 140q-31 82 -88 319q-55 232 -55 414z" />
<glyph horiz-adv-x="530" d="M84 -184q35 96 55 159q31 98 86 344q53 238 54 416q0 341 -179 830l-16 43h129l55 -140q31 -82 88 -319q55 -231 56 -414q0 -181 -50 -411q-47 -215 -100 -369l-49 -139h-129z" />
<glyph horiz-adv-x="612" d="M90 -190v1785h408v-116h-285v-1553h285v-116h-408z" />
<glyph horiz-adv-x="612" d="M90 -74h285v1553h-285v116h408v-1785h-408v116z" />
<glyph horiz-adv-x="608" d="M12 645v107q111 27 160 82q47 53 47 147q0 27 -6 125q-8 131 -8 137q0 186 88 268q90 84 293 93l4 -117q-152 -10 -203 -66q-53 -59 -53 -184q0 -4 8 -127q6 -92 6 -121q0 -131 -45 -190q-46 -61 -160 -99q113 -37 158 -100q47 -66 47 -190q0 -10 -6 -103 q-8 -123 -8 -137q0 -129 53 -184q55 -58 203 -68l-4 -117q-201 8 -291 92t-90 269q0 14 8 137q6 92 6 115q0 92 -47 145q-46 52 -160 86z" />
<glyph horiz-adv-x="608" d="M4 -88q152 10 203 65q53 59 53 185q0 35 -6 127q-2 23 -4 52.5l-3 44.5t-1 24q0 131 45 190q46 61 160 98q-113 37 -158 101q-47 66 -47 190q0 4 1 15.5l3 36l4 51.5q6 92 6 137q0 129 -53 184q-55 58 -203 68l4 116q201 -8 291 -92t90 -268q0 -43 -6 -135l-4 -52.5 t-3 -43t-1 -21.5q0 -92 47 -145q49 -55 160 -86v-107q-111 -27 -160 -82q-47 -53 -47 -147q0 -8 1 -23.5t3 -44l4 -55.5q6 -98 6 -139q0 -186 -88 -269q-90 -84 -293 -92z" />
<glyph horiz-adv-x="464" d="M18 1792l48 113l426 -195l-43 -98z" />
<glyph horiz-adv-x="464" d="M47 1792l47 113l426 -195l-43 -98z" />
<glyph horiz-adv-x="464" d="M29 1716l426 195l47 -113l-430 -182z" />
<glyph horiz-adv-x="464" d="M31 1716l426 195l47 -113l-430 -182z" />
<glyph horiz-adv-x="931" d="M125 1645l274 268h109l272 -268h-145l-180 170l-181 -170h-149z" />
<glyph horiz-adv-x="464" d="M-57 1645l274 268h109l272 -268h-145l-181 170l-180 -170h-149z" />
<glyph horiz-adv-x="464" d="M-66 1911h148l180 -172l180 172h148l-273 -269h-108z" />
<glyph horiz-adv-x="464" d="M-68 1911h148l180 -172l180 172h148l-273 -269h-108z" />
<glyph horiz-adv-x="464" d="M-74 1786q113 119 193 119q49 0 178 -59.5t152 -59.5q41 0 151 98l33 -94q-109 -117 -182 -117q-53 0 -175 60q-125 61 -157 61q-20 0 -62 -27q-27 -16 -71 -53l-31 -24z" />
<glyph horiz-adv-x="464" d="M-74 1786q113 119 193 119q49 0 178 -59.5t152 -59.5q41 0 151 98l33 -94q-109 -117 -182 -117q-53 0 -175 60q-125 61 -157 61q-20 0 -62 -27q-27 -16 -71 -53l-31 -24z" />
<glyph horiz-adv-x="464" d="M-20 1694v161h120v-161h-120zM395 1694v161h119v-161h-119z" />
<glyph horiz-adv-x="464" d="M-20 1694v161h120v-161h-120zM395 1694v161h119v-161h-119z" />
<glyph horiz-adv-x="464" d="M-43 1683v109h618v-109h-618z" />
<glyph horiz-adv-x="464" d="M-43 1683v109h618v-109h-618z" />
<glyph horiz-adv-x="464" d="M-39 1894h125q2 -70 55 -112q49 -41 127 -41q77 0 129 43q49 41 54 110h124q-4 -119 -88 -188q-88 -72 -219 -72t-219 72q-84 69 -88 188z" />
<glyph horiz-adv-x="464" d="M-39 1894h125q2 -70 55 -112q49 -41 127 -41q77 0 129 43q49 41 54 110h124q-4 -119 -88 -188q-88 -72 -219 -72t-219 72q-84 69 -88 188z" />
<glyph horiz-adv-x="464" d="M35 1632q0 92 63 150q61 55 161.5 55t162.5 -55q63 -57 63 -150q0 -94 -63 -151q-61 -55 -161.5 -55.5t-162.5 55.5q-63 57 -63 151zM137 1632q0 -51 33 -82q35 -31 90 -30.5t90 30.5q33 31 33 82q0 55 -33 82q-35 29 -90 29t-90 -29q-33 -27 -33 -82z" />
<glyph horiz-adv-x="464" d="M25 1632q0 92 63 150q61 55 161.5 55t162.5 -55q63 -57 63 -150q0 -94 -63 -151q-61 -55 -161.5 -55.5t-162.5 55.5q-63 57 -63 151zM127 1632q0 -51 33 -81.5t90 -30.5t90 30.5t33 81.5q0 55 -33 82q-35 29 -90 29t-90 -29q-33 -27 -33 -82z" />
<glyph horiz-adv-x="464" d="M-96 1618l327 235l86 -69l-331 -232zM307 1616l328 235l88 -67l-334 -234z" />
<glyph horiz-adv-x="464" d="M-96 1618l327 235l86 -69l-331 -232zM307 1616l328 235l88 -67l-334 -234z" />
<glyph horiz-adv-x="464" d="M172 1599v154h123v-154h-123z" />
<glyph horiz-adv-x="464" d="M172 1599v154h123v-154h-123z" />
<glyph horiz-adv-x="540" d="M37 1096q0 186 59 260q61 76 178 76t179 -78q61 -76 61 -260.5t-61.5 -262t-176.5 -77.5q-117 0 -178 77q-61 78 -61 265zM150 1094q0 -132 30 -185q31 -53 96 -53q63 0 94 53.5t31 186.5q0 127 -30 182q-29 53 -97 53q-70 0 -96 -53q-28 -57 -28 -184z" />
<glyph horiz-adv-x="540" d="M61 1272l207 141h105v-639h-111v518l-149 -102z" />
<glyph horiz-adv-x="540" d="M49 774v98l189 191q61 61 81 94q25 40 25 86q0 84 -106 84q-68 0 -177 -20l-6 100q117 25 203 25q199 0 199 -181q0 -68 -31 -121q-31 -52 -98 -116l-135 -140h274v-100h-418z" />
<glyph horiz-adv-x="540" d="M55 776l6 96q121 -16 209 -16q111 0 111 96q0 100 -105 101h-133v96h131q34 0 62 31q29 33 29 73q0 78 -105 78q-82 0 -190 -16l-7 96q109 20 205 21q209 0 209 -168q0 -100 -88 -156q55 -18 80 -49q27 -33 27 -109q0 -197 -215 -196q-95 -1 -226 22z" />
<glyph horiz-adv-x="540" d="M33 879v94l155 440h119l-160 -432h177l8 178h102v-178h62v-102h-62v-105h-110v105h-291z" />
<glyph horiz-adv-x="540" d="M68 782l8 97q117 -23 194 -23q47 0 78 31t31 88q0 106 -94 106q-66 0 -121 -37l-88 11l20 358h373v-100h-279l-12 -170q46 37 123 37q195 0 195 -203q0 -104 -60 -164q-57 -57 -155 -57q-86 -1 -213 26z" />
<glyph horiz-adv-x="540" d="M45 1090q0 182 61.5 262t190.5 80q76 0 176 -19l-6 -94q-88 14 -168 14q-70 0 -104 -41q-33 -39 -33 -133l18 6l53 17q37 10 60 10q209 0 209 -209q0 -104 -60 -168q-57 -61 -161 -61q-236 0 -236 336zM160 1057q4 -203 119 -203q111 0 110 127q0 63 -24 88 q-27 27 -84 27q-31 0 -57.5 -8.5t-47.5 -20.5z" />
<glyph horiz-adv-x="540" d="M57 1307v106h414v-145l-221 -512l-117 22l215 484v45h-291z" />
<glyph horiz-adv-x="540" d="M31 944q0 120 110 166q-100 37 -100 152q0 170 229.5 170t229.5 -172q0 -121 -99 -152q109 -35 109 -156q0 -111 -61 -153q-63 -45 -179 -45q-239 0 -239 190zM145 946q0 -96 125 -96t125 102q0 47 -22.5 69.5t-71.5 37.5h-61q-51 -16 -72 -39q-23 -27 -23 -74zM154 1253 q0 -39 20 -63q18 -20 66 -37h61q49 15 67.5 36.5t18.5 61.5q0 86 -116.5 86t-116.5 -84z" />
<glyph horiz-adv-x="540" d="M39 1212q0 100 63.5 160t161.5 60q236 0 236 -342q0 -184 -60 -259q-61 -78 -192 -77q-78 0 -180 22l6 92q89 -12 166 -12q143 0 147 170q-80 -29 -139 -29q-98 0 -154 58q-55 59 -55 157zM154 1212q0 -51 28.5 -85.5t77.5 -34.5q23 0 57 10q43 12 52 16l20 8 q-6 207 -123 207q-112 0 -112 -121z" />
</font>
</defs>
</svg>
